Watch WWE NXT 2018 08 08 WEB HEEL /720p

Watch WWE NXT 2018 08 08 WEB HEEL /720p

 

 

 

 


 

 

 

dx-tv.com

 

 

 

 

 

 
Complete name : WWE.NXT.2018.08.08.WEB.h264-HEEL.mp4
Format : MPEG-4
Format profile : Base Media
File size : 747 MiB
Duration : 57 min 54 s
Overall bit rate mode : Variable
Overall bit rate : 1 805 kb/s
Writing application : Lavf58.2.103

Video
ID : 1
Format : AVC
Format/Info : Advanced Video Codec
Codec ID : avc1
Codec ID/Info : Advanced Video Coding
Duration : 57 min 54 s
Duration_FirstFrame : 12 ms
Bit rate mode : Constant
Bit rate : 1 704 kb/s
Width : 896 pixels
Height : 504 pixels
Display aspect ratio : 16:9
Frame rate mode : Constant
Color space : YUV
Chroma subsampling : 4:2:0
Bit depth : 8 bits
Scan type : Progressive
Bits/(Pixel*Frame) : 0.126
Stream size : 706 MiB (94%)

Audio
ID : 2
Format : AAC
Format/Info : Advanced Audio Codec
Format profile : LC
Codec ID : mp4a-40-2
Duration : 57 min 54 s
Bit rate mode : Variable
Bit rate : 93.5 kb/s
Maximum bit rate : 94.9 kb/s
Channel(s) : 2 channels
Channel positions : Front: L R
Sampling rate : 48.0 kHz
Frame rate : 46.875 FPS (1024 SPF)
Compression mode : Lossy
Stream size : 38.7 MiB (5%)
Language : English
Default : Yes
Alternate group : 1

 

 

 

 

 

 

 

 
Title: WWE.NXT.2018.08.08.720p.WEB.h264-HEEL
Released: 2018.08.08
Source: WWE Network
Resolution: 1280 x 720 @ 29.970 FPS
Video: H.264 @ 4500 kbps
Audio: AAC @ 128 kbps
Size: 1.82 GB
Runtime: 57mn 54sec
 

 

 

 

 

 

 

 

 

Watch WWE NXT 2018 08 08 WEB HEEL /720p

 

 

 

 

Watch online

 

 

Waiting finish converting video

 

 

Server 1

 

 

 

 

 

 

 

 

 

 

 

 

 

 

 

 

 

 

 

 

Server 2

 

 

 

 

 

 

 

 


 

 

 

 

 

 

 

Uploaded By Site DX-TV.com

 

 

 

open rar file to see this password

 

 

 

 

The password : DX-TV.com

 

 

 

 

Uploaded.net + rapidgator.net

 

 

 

 

 

http://shrt10.com/DclA1Qhu
 

http://shrt10.com/9Nx0m10S
 

http://shrt10.com/haOABT
 

http://shrt10.com/Wu7vm
 

 

 

 

 

 

 

 

 

Watch WWE NXT 2018 08 08 WEB HEEL /720p

Support HVIPS

Please Disable Ad-Block To View This site. just help us to continue this work