Watch WWE NXT 2018 08 01 WEB HEEL /720p mp4

Watch WWE NXT 2018 08 01 WEB HEEL /720p mp4

 

 

 

 


 

 

 

 

dx-tv.com

 

 

 

 

 

 
Complete name : WWE.NXT.2018.08.01.WEB.h264-HEEL.mp4
Format : MPEG-4
Format profile : Base Media
Codec ID : isom
File size : 747 MiB
Duration : 58mn 36s
Overall bit rate : 1 782 Kbps
Writing application : Lavf58.2.103

Video
ID : 1
Format : AVC
Format/Info : Advanced Video Codec
Codec ID : avc1
Codec ID/Info : Advanced Video Coding
Duration : 58mn 36s
Bit rate mode : Variable
Bit rate : 1 681 Kbps
Maximum bit rate : 2 125 Kbps
Width : 960 pixels
Height : 540 pixels
Display aspect ratio : 16:9
Frame rate mode : Constant
Frame rate : 29.970 fps
Color space : YUV
Chroma subsampling : 4:2:0
Bit depth : 8 bits
Scan type : Progressive
Bits/(Pixel*Frame) : 0.108
Stream size : 705 MiB (94%)

Audio
ID : 2
Format : AAC
Format/Info : Advanced Audio Codec
Format profile : LC
Codec ID : 40
Duration : 58mn 36s
Bit rate mode : Variable
Bit rate : 93.5 Kbps
Maximum bit rate : 96.0 Kbps
Channel(s) : 2 channels
Channel positions : Front: L R
Sampling rate : 48.0 KHz
Compression mode : Lossy
Stream size : 39.2 MiB (5%)

 

 

 

 

 

 

 
Title: WWE.NXT.2018.08.01.720p.WEB.h264-HEEL
Released: 2018.08.01
Source: WWE Network
Resolution: 1280 x 720 @ 29.970 FPS
Video: H.264 @ 4500 kbps
Audio: AAC @ 96 kbps
Size: 1.84 GB
Runtime: 58mn 36sec
 

 

 

 

Watch WWE NXT 2018 08 01 WEB HEEL /720p mp4

 

 

 

 

Watch online

 

 

Waiting finish converting video

 

 

Server 1

 

 

 

 

 

 

 

 

 

 

 

 

 

 

 

 

 

 

 

 

Server 2

 

 

 

 

 

 

 

 


 

 

 

 

 

 

 

 

Uploaded By Site DX-TV.com

 

 

 

open rar file to see this password

 

 

 

 

The password : DX-TV.com

 

 

 

 

Uploaded.net + rapidgator.net

 

 

 

 

 

http://shrt10.com/ce1bwHde
 

 

 

http://shrt10.com/uhdr
 

 

 

http://shrt10.com/cGuHNMI
 

 

 

http://shrt10.com/opcURh
 

 

 

 

 

 

 

Watch WWE NXT 2018 08 01 WEB HEEL /720p mp4