Watch WWE Not Sam Wrestling E04 Family 720p

WWE Not Sam Wrestling E04 Family 720p DX-TV

WWE Not Sam Wrestling

 

 WWE Not Sam Wrestling
 


 

 

Watch WWE Not Sam Wrestling E04 Family 720p

 

 

 

 

Complete name : WWE.Not.Sam.Wrestling.E04.Family.720p.WEB.h264-HEEL.mp4
Format : MPEG-4
Format profile : Base Media
Codec ID : isom
File size : 705 MiB
Duration : 57 min 55 s
Overall bit rate mode : Variable
Overall bit rate : 1 703 kb/s
Writing application : Lavf58.32.104

WWE Not Sam Wrestling

Video
ID : 1
Format : AVC
Duration : 57 min 55 s
Bit rate : 1 512 kb/s
Width : 1 280 pixels
Height : 720 pixels
Display aspect ratio : 16:9
Frame rate mode : Constant
Frame rate : 30.000 FPS
Color space : YUV
Chroma subsampling : 4:2:0
Bit depth : 8 bits
Scan type : Progressive
Bits/(Pixel*Frame) : 0.055
Stream size : 623 MiB (88%)

WWE Not Sam Wrestling

Audio
ID : 2
Format : AAC LC
Format/Info : Advanced Audio
Codec ID : mp4a-40-2
Duration : 57 min 55 s
Bit rate mode : Variable
Bit rate : 192 kb/s
Maximum bit rate : 288 kb/s
Channel(s) : 2 channels
Channel layout : L R
Sampling rate : 48.0 kHz
Frame rate : 46.875 FPS
Compression mode : Lossy
Stream size : 78.3 MiB
Default : Yes
Alternate group : 1

 

 

 

Watch WWE Not Sam Wrestling E04 Family 720p

 

Watch online

 

 

Server 1

 

 

 

 

 

 

WWE Not Sam Wrestling

 

Server-2

 

 

 

 

 

 

 

 

 

Uploaded By Site DX-TV.com

 

 

 

 

Download Free Links with normal and high Speed [ more 14 hosts ]  

 

[su_expand more_text=”Show Hosts Info” less_text=”Close all Info” height=”30″ text_color=”#000000″ link_color=”#e25f8b” link_style=”button” more_icon=”icon: arrow-down” less_icon=”icon: arrow-up”]

 

 Not Sam Wrestling

hexupload.net – clicknupload.co – www.multiup.org – uptobox.com – anonfiles.com – userscloud.com – 

 

 

[/su_expand]

 

 

http://shrt10.com/NtQVGR
http://shrt10.com/Z4rt3J6e
http://shrt10.com/ZRNrb
http://shrt10.com/EBGo3j0Qd
http://shrt10.com/U5LbTClnX
http://shrt10.com/GgwFK3XC1
http://shrt10.com/WmMuaE6K
http://shrt10.com/EJVWNCkvz

 

 

 

 

Download Links with premium High Speed   

 

 

 

 

dropapk.to

 

 

 

nitroflare.com

 

 

 

rapidgator.net

 

 

 

uploaded.net

 

 

 

uploadgig.com

 

 

 

 

 

dx-tv.com

 

urlfree.net

Leave a Reply

Your email address will not be published. Required fields are marked *

This site uses Akismet to reduce spam. Learn how your comment data is processed.