Watch WWE Not Sam Wrestling E03 Unexpected 1080p

WWE Not Sam Wrestling E03 Unexpected 1080p DX-TV

Watch WWE Not Sam Wrestling

 

 Watch WWE Not Sam Wrestling

 

Watch WWE Not Sam Wrestling E03 Unexpected 1080p

 

Complete name : WWE.Not.Sam.Wrestling.E03.Unexpected.1080p.WEB.h264-HEEL.mp4
Format : MPEG-4
Format profile : Base Media
Codec ID : isom
File size : 3.34 GiB
Duration : 59 min 53 s
Overall bit rate : 7 978 kb/s
Writing application : Lavf58.32

Watch WWE Not Sam Wrestling

Video
ID : 1
Format : AVC
Duration : 59 min 53 s
Bit rate : 7 808 kb/s
Width : 1 920 pixels
Height : 1 080 pixels
Display aspect ratio : 16:9
Frame rate mode : Constant
Frame rate : 30.000 FPS
Color space : YUV
Chroma subsampling : 4:2:0
Bit depth : 8 bits
Scan type : Progressive
Bits/(Pixel*Frame) : 0.126
Stream size : 3.25 GiB

Watch WWE Not Sam Wrestling

Audio
ID : 2
Format : AAC LC
Format/Info : Advanced
Codec ID : mp4a-40-2
Duration : 59 min 53 s
Bit rate mode : Constant
Bit rate : 192 kb/s
Channel(s) : 2 channels
Channel layout : L R
Sampling rate : 48.0 kHz
Frame rate : 46.875 FPS
Compression mode : Lossy
Stream size : 83.7 MiB
Default : Yes
Alternate group : 1

WWE Not Sam Wrestling

Professional Broadcaster Sam Roberts talks to wrestlers and media personalities about their common love of.

all things pro wrestling, and gives his take on current day Sports Entertainment.

 

WWE Not Sam Wrestling E03 Unexpected 1080p

 

Watch online

 

 

Server 1

 

 

 

 

Watch WWE Not Sam Wrestling

 

 

 

 

Server-2

 

 

 

watch now

 

 

 

 

 

 

Uploaded By Site DX-TV.com

 

 

 

 

Download Free Links with normal and high Speed [ more 14 hosts ]  

 

 

 

http://shrt10.com/NqhNA6vCW
http://shrt10.com/D72pQh1l
http://shrt10.com/WaBVe1i
http://shrt10.com/Euj7g97
http://shrt10.com/UqDcHt109
http://shrt10.com/niIQjx

 

 

 

 

Download Links with premium High Speed   

 

 

 

 

dropapk.to

 

 

 

nitroflare.com

 

 

 

rapidgator.net

 

 

 

uploaded.net

 

 

 

uploadgig.com

 

 

 

 

 

dx-tv.com

 

urlfree.net

Leave a Reply

Your email address will not be published. Required fields are marked *

This site uses Akismet to reduce spam. Learn how your comment data is processed.