Watch WWE Not Sam Wrestling 2020 1080p DX-TV

Watch WWE Not Sam Wrestling E11 2020 1080p DX-TV

Watch WWE Not Sam Wrestling

 Watch WWE Not Sam Wrestling

 

Download Links with premium High Speed   

 

 

dropapk.to

http://shrt10.com/2WJoEpdpb

 

 

nitroflare.com

http://shrt10.com/7WuTHR

 

 

rapidgator.net

http://shrt10.com/acMFwOton

 

 

uploaded.net

http://shrt10.com/pkRbvu0Z

 

 

uploadgig.com

http://shrt10.com/j1o0HFk

 

Watch online

 

Server 1

 

 

 

 

watch now

 

 

 

 

Server-2

 

 

 

 

watch now

 

 

Uploaded By Site DX-TV.com

 

 

Complete name : WWE.Not.Sam.Wrestling.E11.2020.1080p.WEB.h264-HEEL.mp4
Format : MPEG-4
Format profile : Base Media
Codec ID : isom
File size : 3.34 GiB
Duration : 59 min 52 s
Overall bit rate mode : Variable
Overall bit rate : 7 980 kb/s
Writing application : Lavf58.32.104

Watch WWE Not Sam Wrestling

Video
ID : 1
Format : AVC
Codec ID : avc1
Codec ID/Info : Advanced
Duration : 59 min 52 s
Bit rate : 7 808 kb/s
Width : 1 920 pixels
Height : 1 080 pixels
Display aspect ratio : 16:9
Frame rate mode : Constant
Frame rate : 30.000 FPS
Color space : YUV
Chroma subsampling : 4:2:0
Bit depth : 8 bits
Scan type : Progressive
Bits/(Pixel*Frame) : 0.126
Stream size : 3.25 GiB (97%)

Watch WWE Not Sam  

Audio
ID : 2
Format : AAC LC
Format/Info : Advanced Audio Codec Low Complexity
Codec ID : mp4a-40-2
Duration : 59 min 52 s
Bit rate mode : Variable
Bit rate : 196 kb/s
Maximum bit rate : 256 kb/s
Channel(s) : 2 channels
Channel layout : L R
Sampling rate : 48.0 kHz
Frame rate : 46.875 FPS (1024 SPF)
Compression mode : Lossy
Stream size : 84.1 MiB (2%)
Default : Yes
Alternate group : 1

 WWE Not Sam Wrestling

Audio
ID : 2
Format : AAC LC
Format/Info : Advanced Audio Codec Low Complexity
Codec ID : mp4a-40-2
Duration : 59 min 52 s
Bit rate mode : Variable
Bit rate : 196 kb/s
Maximum bit rate : 256 kb/s
Channel(s) : 2 channels
Channel layout : L R
Sampling rate : 48.0 kHz
Frame rate : 46.875 FPS (1024 SPF)
Compression mode : Lossy
Stream size : 84.1 MiB (2%)
Default : Yes
Alternate group : 1

Watch WWE Not Sam Wrestling

Audio
ID : 2
Format : AAC LC
Format/Info : Advanced Audio Codec Low Complexity
Codec ID : mp4a-40-2
Duration : 59 min 52 s
Bit rate mode : Variable
Bit rate : 196 kb/s
Maximum bit rate : 256 kb/s
Channel(s) : 2 channels
Channel layout : L R
Sampling rate : 48.0 kHz
Frame rate : 46.875 FPS (1024 SPF)
Compression mode : Lossy
Stream size : 84.1 MiB (2%)
Default : Yes
Alternate group : 1

 

https://dx-tv.com/

You May Also Like

Leave a Reply

Your email address will not be published. Required fields are marked *

This site uses Akismet to reduce spam. Learn how your comment data is processed.