Watch WWE Network Online The Bump 2021 01 06 DX-TV

Watch WWE Network Online The Bump 2021 01 06 1080p DX-TV

Watch WWE Network Online

 Watch WWE Network Online

 

Download Links with premium High Speed   

 

 

dropapk.to

http://shrt10.com/URAV1
http://shrt10.com/lpffyH

 

 

nitroflare.com

http://shrt10.com/4f7bqOTj4
http://shrt10.com/mXDPVVe

 

 

rapidgator.net

http://shrt10.com/fsYFt9XMX
http://shrt10.com/kGDDFZPO

 

 

uploaded.net

http://shrt10.com/zebBG8M4
http://shrt10.com/fKdJLe

 

 

uploadgig.com

http://shrt10.com/xHqEG
http://shrt10.com/JyhCDQf

 

Watch WWE Network Online

 

Server 1

 

 

 

 

Watch WWE Network Online

 

 

 

 

Server-2

 

 

 

 

watch now

 

 

Uploaded By Site DX-TV.com

 

 

Complete name : WWE.The.Bump.2021.01.06.1080p.WEB.h264-HEEL.mp4
Format : MPEG-4
Format profile : Base Media
Codec ID : isom
File size : 3.40 GiB
Duration : 1 h 27 min
Overall bit rate mode : Variable
Overall bit rate : 5 579 kb/s
Writing application : Lavf58.32.104

Watch WWE Network Online

Video
ID : 1
Format : AVC
Format profile : [email protected]
Codec ID/Info : Advanced Video
Duration : 1 h 27 min
Bit rate : 5 444 kb/s
Width : 1 920 pixels
Height : 1 080 pixels
Display aspect ratio : 16:9
Frame rate mode : Variable
Frame rate : 30.000 FPS
Minimum frame rate : 29.412 FPS
Maximum frame rate : 30.303 FPS
Color space : YUV
Chroma subsampling : 4:2:0
Bit depth : 8 bits
Scan type : Progressive
Bits/(Pixel*Frame) : 0.088
Stream size : 3.32 GiB (98%)
Codec configuration box : avcC

Audio
ID : 2
Format : AAC LC
Format/Info : Advanced Audio
Codec ID : mp4a-40-2
Duration : 1 h 27 min
Bit rate mode : Variable
Bit rate : 125 kb/s
Maximum bit rate : 134 kb/s
Channel(s) : 2 channels
Channel layout : L R
Sampling rate : 48.0 kHz
Frame rate : 46.875 FPS (1024 SPF)
Compression mode : Lossy
Stream size : 78.2 MiB (2%)
Default : Yes
Alternate group : 1

Watch WWE Network  

Text #1
ID : 1-CC1
Format : EIA-608
Muxing mode : SCTE 128 / DTVCC Transport
Muxing mode, more info : Muxed in Video #1
Duration : 1 h 27 min
Bit rate mode : Constant
Stream size : 0.00 Byte (0%)
CaptionServiceName : CC1

Text #2
ID : 1-CC3
Format : EIA-608
Muxing mode : SCTE 128 / DTVCC Transport
Muxing mode, more info : Muxed in Video #1
Duration : 1 h 27 min
Bit rate mode : Constant
Stream size : 0.00 Byte (0%)
CaptionServiceName : CC3

 WWE Network Online

Text #3
ID : 1-1
Format : EIA-708
Muxing mode : SCTE 128 / DTVCC Transport
Muxing mode, more info : Muxed in Video #1
Duration : 1 h 27 min
Bit rate mode : Constant
Stream size : 0.00 Byte (0%)

Text #4
ID : 1-3
Format : EIA-708
Muxing mode : SCTE 128 / DTVCC Transport
Muxing mode, more info : Muxed in Video #1
Duration : 1 h 27 min
Bit rate mode : Constant
Stream size : 0.00 Byte (0%)

Text #5
ID : 1-4
Format : EIA-708
Muxing mode : SCTE 128 / DTVCC Transport
Muxing mode, more info : Muxed in Video #1
Duration : 1 h 27 min
Bit rate mode : Constant
Stream size : 0.00 Byte (0%)

Text #6
ID : 1-5
Format : EIA-708
Muxing mode : SCTE 128 / DTVCC Transport
Muxing mode, more info : Muxed in Video #1
Duration : 1 h 27 min
Bit rate mode : Constant
Stream size : 0.00 Byte (0%)

Text #7
ID : 1-6
Format : EIA-708
Muxing mode : SCTE 128 / DTVCC Transport
Muxing mode, more info : Muxed in Video #1
Duration : 1 h 27 min
Bit rate mode : Constant
Stream size : 0.00 Byte (0%)

 

 

https://dx-tv.com/

Leave a Reply

Your email address will not be published. Required fields are marked *

This site uses Akismet to reduce spam. Learn how your comment data is processed.