Watch WWE Network Free Best Moments of 2020 DX-TV

Watch WWE Network Free Best Moments of 2020 1080p DX-TV

Watch WWE Network Free

 Watch WWE Network Free

 

Download Links with premium High Speed   

 

 

dropapk.to

http://shrt10.com/aueQl

 

 

nitroflare.com

http://shrt10.com/rniOY

 

 

rapidgator.net

http://shrt10.com/5ZT2pQ

 

 

uploaded.net

http://shrt10.com/qxKT8v

 

 

uploadgig.com

http://shrt10.com/WfeJGb

 

Watch online

 

Server 1

 

 

 

 

Watch WWE Network Free

 

 

 

 

Server-2

 

 

 

 

watch now

 

 

Uploaded By Site DX-TV.com

 

 

Complete name : WWE Network Free Best Moments of 2020 1080p DX-TV.mp4
Format : MPEG-4
Format profile : Base Media
Codec ID : isom
File size : 2.29 GiB
Duration : 41 min 30 s
Overall bit rate mode : Variable
Overall bit rate : 7 909 kb/s
Writing application : Lavf58.25.100

Watch WWE Network Free

Video
ID : 1
Format : AVC
Duration : 41 min 30 s
Bit rate : 7 808 kb/s
Width : 1 920 pixels
Height : 1 080 pixels
Display aspect ratio : 16:9
Frame rate mode : Constant
Frame rate : 30.000 FPS
Color space : YUV
Chroma subsampling : 4:2:0
Bit depth : 8 bits
Scan type : Progressive
Bits/(Pixel*Frame) : 0.126
Stream size : 2.23 GiB (97%)

Watch WWE Network  

Audio
ID : 2
Format : AAC LC
Format/Info : Advanced Audio
Codec ID : mp4a-40-2
Duration : 41 min 30 s
Bit rate mode : Variable
Bit rate : 192 kb/s
Maximum bit rate : 423 kb/s
Channel(s) : 2 channels
Channel layout : L R
Sampling rate : 48.0 kHz
Frame rate : 46.875 FPS (1024 SPF)
Compression mode : Lossy
Stream size : 57.1 MiB (2%)
Default : Yes
Alternate group : 1

Watch WWE Network Free

Audio
ID : 2
Format : AAC LC
Format/Info : Advanced Audio
Codec ID : mp4a-40-2
Duration : 41 min 30 s
Bit rate mode : Variable
Bit rate : 192 kb/s
Maximum bit rate : 423 kb/s
Channel(s) : 2 channels
Channel layout : L R
Sampling rate : 48.0 kHz
Frame rate : 46.875 FPS (1024 SPF)
Compression mode : Lossy
Stream size : 57.1 MiB (2%)
Default : Yes
Alternate group : 1

Watch WWE Network  

Audio
ID : 2
Format : AAC LC
Format/Info : Advanced Audio
Codec ID : mp4a-40-2
Duration : 41 min 30 s
Bit rate mode : Variable
Bit rate : 192 kb/s
Maximum bit rate : 423 kb/s
Channel(s) : 2 channels
Channel layout : L R
Sampling rate : 48.0 kHz
Frame rate : 46.875 FPS (1024 SPF)
Compression mode : Lossy
Stream size : 57.1 MiB (2%)
Default : Yes
Alternate group : 1

WWE Network Free

https://dx-tv.com/

You May Also Like

Leave a Reply

Your email address will not be published. Required fields are marked *

This site uses Akismet to reduce spam. Learn how your comment data is processed.