Watch WWE Network Exclusive 2019 04 21 The Shields Final Chapter WEB HEEL /720p full show free mp4

 

 

 

 


 

 

 

dx-tv.com

 

 

 

 

 

Complete name : WWE.Network.Exclusive.2019.04.21.The.Shields.Final.Chapter.720p.WEB.h264-HEEL.mp4
Format : MPEG-4
Format profile : Base Media
Codec ID : isom
File size : 2.21 GiB
Duration : 1h 10mn
Overall bit rate : 4 503 Kbps
Writing application : Lavf58.26.101

Video
ID : 1
Format : AVC
Format/Info : Advanced Video Codec
Format settings, ReFrames : 4 frames
Format settings, GOP : M=1, N=32
Codec ID : avc1
Codec ID/Info : Advanced Video Coding
Duration : 1h 10mn
Bit rate mode : Constant
Bit rate : 4 372 Kbps
Width : 1 280 pixels
Height : 720 pixels
Display aspect ratio : 16:9
Frame rate mode : Variable
Frame rate : 29.970 fps
Minimum frame rate : 25.203 fps
Maximum frame rate : 29.970 fps
Color space : YUV
Chroma subsampling : 4:2:0
Bit depth : 8 bits
Scan type : Progressive
Bits/(Pixel*Frame) : 0.158
Stream size : 2.14 GiB (97%)

Audio
ID : 2
Format : AAC
Format/Info : Advanced Audio Codec
Format profile : LC
Codec ID : 40
Duration : 1h 10mn
Bit rate mode : Variable
Bit rate : 125 Kbps
Maximum bit rate : 133 Kbps
Channel(s) : 2 channels
Channel positions : Front: L R
Sampling rate : 48.0 KHz
Compression mode : Lossy
Stream size : 63.0 MiB (3%)
Language : English

 

 

 

 

 


 

 

 

Watch WWE Network Exclusive 2019 04 21 The Shields Final Chapter WEB HEEL /720p full show free mp4

 

 

 

 

Watch online

 

 

Waiting finish converting video

 

 

Server 1

 

 

 

 

 

 

 

 

 


 

 

 

 

Server 2

 

 

 

 

 


 

 

 

 


 

 

 

Uploaded By Site DX-TV.com

 

 

 

open rar file to see this password

 

 

 

 

The password : DX-TV.com

 

 

 

 

Uploaded.net + rapidgator.net

 

 

 

 


 

 

https://shrt10.com/wVaTpk
 

 

 
https://shrt10.com/fQ5uVj
 

 

 
https://shrt10.com/H7fpEC
 

 

 
https://shrt10.com/mqxE

 

 

 

 

 

Watch WWE Network Exclusive 2019 04 21 The Shields Final Chapter WEB HEEL /720p full show free mp4