Watch WWE Monday Night Raw 2018 10 22 HDTV NWCHD

Watch WWE Monday Night Raw 2018 10 22 HDTV NWCHD

 

 

 

 


 

 

dx-tv.com

 

 

 

 

Complete name : WWE.Monday.Night.Raw.2018.10.22.HDTV.x264-NWCHD.mp4
Format : MPEG-4
Format profile : Base Media
File size : 1.53 GiB
Duration : 2 h 17 min
Overall bit rate : 1 593 kb/s
Writing application : Lavf58.17.100

Video
ID : 1
Format : AVC
Format/Info : Advanced Video Codec
Codec ID/Info : Advanced Video Coding
Duration : 2 h 17 min
Bit rate : 1 400 kb/s
Width : 704 pixels
Height : 400 pixels
Display aspect ratio : 16:9
Frame rate mode : Variable
Frame rate : 29.970
Minimum frame rate : 16.269 FPS
Maximum frame rate : 29.970 FPS
Color space : YUV
Chroma subsampling : 4:2:0
Bit depth : 8 bits
Scan type : Progressive
Bits/(Pixel*Frame) : 0.166
Stream size : 1.33 GiB (87%)
Color range : Limited
Color primaries : BT.709
Transfer characteristics : BT.709
Matrix coefficients : BT.709

Audio
ID : 2
Format : AAC
Format/Info : Advanced Audio Codec
Format profile : LC
Codec ID : mp4a-40-2
Duration : 2 h 17 min
Bit rate mode : Constant
Bit rate : 192 kb/s
Channel(s) : 2 channels
Channel positions : Front: L R
Sampling rate : 48.0 kHz
Frame rate : 46.875 FPS (1024 SPF)
Compression mode : Lossy
Stream size : 188 MiB (12%)
Default : Yes
Alternate group : 1

 

 

Watch WWE Monday Night Raw 2018 10 22 HDTV NWCHD

 

 

 

 

Watch online

 

 

Waiting finish converting video

 

 

Server 1

 

 

 

 

 

 

 

 

 

 

 

 

 

 

 

Server 2

 

 

 

 

 

 

 


 

 

 

 

 

Uploaded By Site DX-TV.com

 

 

 

open rar file to see this password

 

 

 

 

The password : DX-TV.com

 

 

 

 

Uploaded.net + rapidgator.net

 

 

 

 

 

 

http://shrt10.com/THKEr

 

 

 
http://shrt10.com/YhPqpN5A
 

 

 

 

 

 

Watch WWE Monday Night Raw 2018 10 22 HDTV NWCHD

Leave a Reply

This site uses Akismet to reduce spam. Learn how your comment data is processed.