Watch WWE Mixed Match Challenge S02E08 720p WEB HEEL

Watch WWE Mixed Match Challenge S02E08 720p WEB HEEL

 

 

 

 

 

 

 

 

dx-tv.com

 

 

 

 

 

 

Complete name : WWE.Mixed.Match.Challenge.S02E08.720p.WEB.h264-HEEL.mp4
Format : MPEG-4
Format profile : Base Media
Codec ID : isom (isom)
File size : 915 MiB
Duration : 40 min 44 s
Overall bit rate mode : Variable
Overall bit rate : 3 141 kb/s
Encoded date : UTC 2018-11-06 01:44:15
Tagged date : UTC 2018-11-06 01:44:15

Video
ID : 1
Format : AVC
Format/Info : Advanced Video Codec
Codec ID/Info : Advanced Video Coding
Duration : 40 min 44 s
Bit rate mode : Constant
Bit rate : 3 000 kb/s
Maximum bit rate : 5 355 kb/s
Width : 1 280 pixels
Height : 720 pixels
Display aspect ratio : 16:9
Frame rate mode : Variable
Frame rate : 30.000 FPS
Minimum frame rate : 27.539 FPS
Maximum frame rate : 30.303 FPS
Color space : YUV
Chroma subsampling : 4:2:0
Bit depth : 8 bits
Scan type : Progressive
Bits/(Pixel*Frame) : 0.109
Stream size : 875 MiB (96%)
Tagged date : UTC 2018-11-06 01:44:34

Audio
ID : 2
Format : AAC
Format/Info : Advanced Audio Codec
Format profile : LC
Codec ID : mp4a-40-2
Duration : 40 min 44 s
Bit rate mode : Variable
Bit rate : 132 kb/s
Maximum bit rate : 152 kb/s
Channel(s) : 2 channels
Channel positions : Front: L R
Sampling rate : 48.0 kHz
Frame rate : 46.875 FPS (1024 SPF)
Compression mode : Lossy
Stream size : 37.8 MiB (4%)
Encoded date : UTC 2018-11-06 01:44:32
Tagged date : UTC 2018-11-06 01:44:34

 

 

 

Watch WWE Mixed Match Challenge S02E08 720p WEB HEEL

 

 

 

 

Watch online

 

 

Waiting finish converting video

 

 

Server 1

 

 

 

 

 

 

 

 

 

 

 

 

 

 

 

 

 

 

Server 2

 

 

 

 

 


 

 

 

 

 

 

 

Uploaded By Site DX-TV.com

 

 

 

open rar file to see this password

 

 

 

 

The password : DX-TV.com

 

 

 

 

Uploaded.net + rapidgator.net

 

 

 

 

 

http://shrt10.com/A5IGdI6

 

 

 

 
http://shrt10.com/mt5s
 

 

 

 

 

 

 

 

Watch WWE Mixed Match Challenge S02E08 720p WEB HEEL

Leave a Reply

This site uses Akismet to reduce spam. Learn how your comment data is processed.