Watch WWE Main Event Online Free 2021 05 13 1080p

Watch WWE Main Event Online Free 2021 05 13 1080p DX-TV

Watch WWE Main Event Online

Watch WWE Main Event Online

 

 

 

Download Links with High Speed


Dopapk

 

 

Show Links

 

http://shrt10.com/PSy0j
http://shrt10.com/llUYz648

 

[collapse]

 

 

Nitroflare

 

 

Show Links

 

http://shrt10.com/N3WT08k
http://shrt10.com/KR81ZFrDp

 

[collapse]

 

 

Rapidgator

 

 

Show Links

 

http://shrt10.com/wCMSj
http://shrt10.com/4paQ1Ugyo

 

[collapse]

 

 

Uploaded

 

 

Show Links

 

http://shrt10.com/ZTJl0T
http://shrt10.com/7ifQCAt

 

[collapse]

 

 

Watch online

 

Server 1

 

 

 

 

watch now

 

 

 

 

Server-2

 

 

 

 

Watch WWE Main Event Online

 

 

 

|Server-3

 

 

 

 

watch now

 

 

Uploaded By Site DX-TV.com

 

 

Show Info This Show

 

 

Complete name : WWE.Main.Event.2021.05.13.720p.Hulu.x264-Star.mkv
Format : Matroska
Format version : Version 4
File size : 1.42 GiB
Duration : 49 min 40 s
Overall bit rate : 4 107 kb/s

Watch WWE Main Event Online

Video
ID : 1
Format : AVC
Codec ID : V_MPEG4/ISO/AVC
Duration : 49 min 40 s
Bit rate : 4 000 kb/s
Width : 1 280 pixels
Height : 720 pixels
Display aspect ratio : 16:9
Frame rate mode : Constant
Frame rate : 29.970 (30000/1001) FPS
Color space : YUV
Chroma subsampling : 4:2:0
Bit depth : 8 bits
Scan type : Progressive
Bits/(Pixel*Frame) : 0.145
Stream size : 1.35 GiB (95%)
Forced : No
Color range : Limited
Color primaries : BT.709
Transfer characteristics : BT.709
Matrix coefficients : BT.709

WWE Main Event Online

Audio
ID : 2
Format : AC-3
Format/Info : Audio Coding 3
Commercial name : Dolby Digital
Codec ID : A_AC3
Duration : 49 min 40 s
Bit rate mode : Constant
Bit rate : 128 kb/s
Channel(s) : 2 channels
Channel layout : L R
Sampling rate : 48.0 kHz
Frame rate : 31.250 FPS
Compression mode : Lossy
Delay relative to video : -5 ms
Stream size : 45.5 MiB (3%)
Title : Stereo
Service kind : Complete Main
Default : Yes
Forced : No

Complete name : WWE.Main.Event.2021.05.13.1080p.Hulu.x264-Star.mkv
Format : Matroska
Format version : Version 4
File size : 2.81 GiB
Duration : 49 min 40 s
Overall bit rate : 8 093 kb/s

WWE Main Event Online

Video
ID : 1
Format : AVC
Format/Info : Advanced Video
Duration : 49 min 40 s
Bit rate : 8 000 kb/s
Width : 1 920 pixels
Height : 1 080 pixels
Display aspect ratio : 16:9
Frame rate mode : Constant
Frame rate : 29.970 (30000/1001) FPS
Color space : YUV
Chroma subsampling : 4:2:0
Bit depth : 8 bits
Scan type : Progressive
Bits/(Pixel*Frame) : 0.129
Stream size : 2.71 GiB (96%)
Forced : No
Color range : Limited
Color primaries : BT.709
Transfer characteristics : BT.709
Matrix coefficients : BT.709

Audio
ID : 2
Format : AC-3
Format/Info : Audio Coding 3
Commercial name : Dolby Digital
Codec ID : A_AC3
Duration : 49 min 40 s
Bit rate mode : Constant
Bit rate : 128 kb/s
Channel(s) : 2 channels
Channel layout : L R
Sampling rate : 48.0 kHz
Frame rate : 31.250 FPS
Compression mode : Lossy
Delay relative to video : -5 ms
Stream size : 45.5 MiB (2%)
Title : Stereo
Service kind : Complete Main
Default : Yes
Forced : No

WWE Main Event Online

 

[collapse]

 

 

https://dx-tv.com/

Leave a Reply

Your email address will not be published. Required fields are marked *

This site uses Akismet to reduce spam. Learn how your comment data is processed.