Watch WWE Main Event 720p 2021 25 03 DX-TV

Watch WWE Main Event 720p 2021 25 03 DX-TV

Watch WWE Main Event

 Watch WWE Main Event

 

 

 

Download Links with High Speed


Dopapk

 

 

Show Links

 

http://shrt10.com/1xrtx

 

[collapse]

 

 

Nitroflare

 

 

Show Links

 

http://shrt10.com/WLYRLnW

 

[collapse]

 

 

Rapidgator

 

 

Show Links

 

http://shrt10.com/hFWH6XDnu

 

[collapse]

 

 

Uploaded

 

 

Show Links

 

http://shrt10.com/kERP0

 

[collapse]

 

 

Watch online

 

Server 1

 

 

 

 

watch now

 

 

 

 

Server-2

 

 

 

 

watch now

 

 

 

|Server-3

 

 

 

 

watch WWE Main Event

 

 

Uploaded By Site DX-TV.com

 

 

Show Info This Show

 

Complete name : WWE.Main.Event.2021.25.03 dx-tv.com.mp4
Format : MPEG-4
Format profile : Base Media
Codec ID : isom
File size : 825 MiB
Duration : 43 min 15 s
Overall bit rate : 2 665 kb/s

WWE Main Event

Video
ID : 1
Format : AVC
Duration : 43 min 15 s
Bit rate : 2 500 kb/s
Width : 1 280 pixels
Height : 720 pixels
Display aspect ratio : 16:9
Frame rate mode : Variable
Frame rate : 25.000 FPS
Minimum frame rate : 12.500 FPS
Maximum frame rate : 25.000 FPS
Color space : YUV
Chroma subsampling : 4:2:0
Bit depth : 8 bits
Scan type : Progressive
Bits/(Pixel*Frame) : 0.109
Stream size : 774 MiB (94%)
Color range : Limited
Color primaries : BT.709
Transfer characteristics : BT.709
Matrix coefficients : BT.709
Codec configuration box : avcC

Audio
ID : 2
Format : AAC LC
Format/Info : Advanced Audio
Codec ID : mp4a-40-2
Duration : 43 min 15 s
Bit rate mode : Constant
Bit rate : 161 kb/s
Channel(s) : 2 channels
Channel layout : L R
Sampling rate : 48.0 kHz
Frame rate : 46.875 FPS
Compression mode : Lossy
Stream size : 49.7 MiB (6%)
Default : Yes
Alternate group : 1

WWE Main Event

Audio
ID : 2
Format : AAC LC
Format/Info : Advanced Audio
Codec ID : mp4a-40-2
Duration : 43 min 15 s
Bit rate mode : Constant
Bit rate : 161 kb/s
Channel(s) : 2 channels
Channel layout : L R
Sampling rate : 48.0 kHz
Frame rate : 46.875 FPS
Compression mode : Lossy
Stream size : 49.7 MiB (6%)
Default : Yes
Alternate group : 1

 

 

[collapse]

 

 

https://dx-tv.com/