Watch WWE Main Event 2021 05 06 720p

Watch WWE Main Event 2021 05 06 720p DX-TV

Watch WWE Main Event

 Watch WWE Main Event

 

 

 

Download Links with High Speed


 

Dopapk

 

 

Show Links

 

http://shrt10.com/NtqvF

 

[collapse]

 

 

Nitroflare

 

 

Show Links

 

http://shrt10.com/FPaYPRF

 

[collapse]

 

 

Rapidgator

 

 

Show Links

 

http://shrt10.com/tGHjDy

 

[collapse]

 

 

Uploaded

 

 

Show Links

 

http://shrt10.com/TstIBI

 

[collapse]

 

 

Watch online

 

Server 1

 

 

 

 

Watch WWE Main Event

 

 

 

 

Server-2

 

 

 

 

watch now

 

 

 

|Server-3

 

 

 

 

watch now

 

 

Uploaded By Site DX-TV.com

 

 

Show Info This Show

 

 

Complete name : WWE.Main.Event.2021.05.06.HULU.720p.WEB.h264-HEEL.mp4
Format : MPEG-4
Format profile : Base Media
Codec ID : isom (
File size : 1.10 GiB
Duration : 49 min 40 s
Overall bit rate : 3 168 kb/s

Watch WWE Main Event

Video
ID : 1
Format : AVC
Codec ID/Info : Advanced Video
Duration : 49 min 40 s
Bit rate : 3 097 kb/s
Width : 1 280 pixels
Height : 720 pixels
Display aspect ratio : 16:9
Frame rate mode : Constant
Frame rate : 29.970 (29970/1000) FPS
Color space : YUV
Chroma subsampling : 4:2:0
Bit depth : 8 bits
Scan type : Progressive
Bits/(Pixel*Frame) : 0.112
Stream size : 1.07 GiB (98%)
Codec configuration box : avcC

Audio
ID : 2
Format : AAC LC SBR
Commercial name : HE-AAC
Format settings : Explicit
Codec ID : mp4a-40-2
Duration : 49 min 40 s
Bit rate mode : Constant
Bit rate : 64.0 kb/s
Channel(s) : 2 channels
Channel layout : L R
Sampling rate : 48.0 kHz
Frame rate : 23.438 FPS
Compression mode : Lossy
Stream size : 22.7 MiB (2%)
Default : Yes
Alternate group : 1

WWE Main Event

Audio
ID : 2
Format : AAC LC SBR
Commercial name : HE-AAC
Format settings : Explicit
Codec ID : mp4a-40-2
Duration : 49 min 40 s
Bit rate mode : Constant
Bit rate : 64.0 kb/s
Channel(s) : 2 channels
Channel layout : L R
Sampling rate : 48.0 kHz
Frame rate : 23.438 FPS
Compression mode : Lossy
Stream size : 22.7 MiB (2%)
Default : Yes
Alternate group : 1

Audio
ID : 2
Format : AAC LC SBR
Commercial name : HE-AAC
Format settings : Explicit
Codec ID : mp4a-40-2
Duration : 49 min 40 s
Bit rate mode : Constant
Bit rate : 64.0 kb/s
Channel(s) : 2 channels
Channel layout : L R
Sampling rate : 48.0 kHz
Frame rate : 23.438 FPS
Compression mode : Lossy
Stream size : 22.7 MiB (2%)
Default : Yes
Alternate group : 1

WWE Main Event

Audio
ID : 2
Format : AAC LC SBR
Commercial name : HE-AAC
Format settings : Explicit
Codec ID : mp4a-40-2
Duration : 49 min 40 s
Bit rate mode : Constant
Bit rate : 64.0 kb/s
Channel(s) : 2 channels
Channel layout : L R
Sampling rate : 48.0 kHz
Frame rate : 23.438 FPS
Compression mode : Lossy
Stream size : 22.7 MiB (2%)
Default : Yes
Alternate group : 1

Audio
ID : 2
Format : AAC LC SBR
Commercial name : HE-AAC
Format settings : Explicit
Codec ID : mp4a-40-2
Duration : 49 min 40 s
Bit rate mode : Constant
Bit rate : 64.0 kb/s
Channel(s) : 2 channels
Channel layout : L R
Sampling rate : 48.0 kHz
Frame rate : 23.438 FPS
Compression mode : Lossy
Stream size : 22.7 MiB (2%)
Default : Yes
Alternate group : 1

 

WWE Main Event

[collapse]

 

 

https://dx-tv.com/