Watch WWE Main Event 2021 03 04 1080p

Watch WWE Main Event 2021 03 04 1080p DX-TV

Watch WWE Main Event

 Watch WWE Main Event

 

 

 

Download Links with High Speed


Dopapk

 

 

Show Links

 

http://shrt10.com/PlO5AFwhg

 

[collapse]

 

 

Nitroflare

 

 

Show Links

 

http://shrt10.com/xbAG9iME

 

[collapse]

 

 

Rapidgator

 

 

Show Links

 

http://shrt10.com/9pldlok

 

[collapse]

 

 

Uploaded

 

 

Show Links

 

http://shrt10.com/yRbBuYk

 

[collapse]

 

 

Watch online

 

Server 1

 

 

 

 

watch now

 

 

 

 

Server-2

 

 

 

 

watch now

 

 

 

|Server-3

 

 

 

 

watch WWE Main Event

 

 

Uploaded By Site DX-TV.com

 

 

Show Info This Show

 

 

Complete name : WWE.Main.Event.2021.03.04.1080p.WEB.h264-HEEL.mp4
Format : MPEG-4
Format profile : Base Media
Codec ID : isom
File size : 2.65 GiB
Duration : 47 min 56 s
Overall bit rate mode : Variable
Overall bit rate : 7 901 kb/s

WWE Main Event

Video
ID : 1
Format : AVC
Duration : 47 min 56 s
Bit rate : 7 808 kb/s
Width : 1 920 pixels
Height : 1 080 pixels
Display aspect ratio : 16:9
Frame rate mode : Constant
Frame rate : 30.000 FPS
Color space : YUV
Chroma subsampling : 4:2:0
Bit depth : 8 bits
Scan type : Progressive
Bits/(Pixel*Frame) : 0.126
Stream size : 2.58 GiB (97%)

WWE Main Event

Audio
ID : 2
Format : AAC LC
Codec ID : mp4a-40-2
Duration : 47 min 56 s
Bit rate mode : Variable
Bit rate : 192 kb/s
Maximum bit rate : 444 kb/s
Channel(s) : 2 channels
Channel layout : L R
Sampling rate : 48.0 kHz
Frame rate : 46.875 FPS
Compression mode : Lossy
Stream size : 66.1 MiB (2%)
Default : Yes
Alternate group : 1

Text
ID : 3
Format : Timed Text
Muxing mode : sbtl
Codec ID : tx3g
Duration : 47 min 41 s
Bit rate mode : Variable
Bit rate : 101 b/s
Stream size : 35.2 KiB (0%)
Language : English
Default : Yes
Forced : No
Alternate group : 3

WWE Main Event

Audio
ID : 2
Format : AAC LC
Codec ID : mp4a-40-2
Duration : 47 min 56 s
Bit rate mode : Variable
Bit rate : 192 kb/s
Maximum bit rate : 444 kb/s
Channel(s) : 2 channels
Channel layout : L R
Sampling rate : 48.0 kHz
Frame rate : 46.875 FPS
Compression mode : Lossy
Stream size : 66.1 MiB (2%)
Default : Yes
Alternate group : 1

Text
ID : 3
Format : Timed Text
Muxing mode : sbtl
Codec ID : tx3g
Duration : 47 min 41 s
Bit rate mode : Variable
Bit rate : 101 b/s
Stream size : 35.2 KiB (0%)
Language : English
Default : Yes
Forced : No
Alternate group : 3

[collapse]

 

 

https://dx-tv.com/