Watch WWE Main Event 2021 02 26 1080p DX-TV

Watch WWE Main Event 2021 02 26 720p /1080p DX-TV

Watch WWE Main Event

 Watch WWE Main Event

 

 

 

Download Links with premium High Speed


 

Dopapk

 

 

Show Links

 

http://shrt10.com/jB3dUz
http://shrt10.com/4Q1TZPYe

 

[collapse]

 

 

Nitroflare

 

 

Show Links

 

http://shrt10.com/OTWDWiO0K
http://shrt10.com/B5pSnDZ

 

[collapse]

 

 

Rapidgator

 

 

Show Links

 

http://shrt10.com/HCtQ9
http://shrt10.com/Q0q4iOl

 

[collapse]

 

 

Uploaded

 

 

Show Links

 

http://shrt10.com/G4ugqxT
http://shrt10.com/F4ABrc8

 

[collapse]

 

 

Watch online

 

Server 1

 

 

 

 

watch now

 

 

 

 

Server-2

 

 

 

 

watch now

 

 

Uploaded By Site DX-TV.com

 

 

Show Info This Show

 

 

Complete name : WWE.Main.Event.2021.02.26.720p.Hulu.x264-Star.mkv
Format : Matroska
Format version : Version 4
File size : 1.30 GiB
Duration : 45 min 20 s
Overall bit rate : 4 117 kb/s

WWE Main Event

Video
ID : 1
Format : AVC
Format/Info : Advanced Video
Duration : 45 min 20 s
Bit rate : 4 000 kb/s
Width : 1 280 pixels
Height : 720 pixels
Display aspect ratio : 16:9
Frame rate mode : Constant
Frame rate : 29.970 FPS
Color space : YUV
Chroma subsampling : 4:2:0
Bit depth : 8 bits
Scan type : Progressive
Bits/(Pixel*Frame) : 0.145
Stream size : 1.24 GiB (95%)
Forced : No
Color range : Limited
Color primaries : BT.709
Transfer characteristics : BT.709
Matrix coefficients : BT.709

Audio
ID : 2
Format : AC-3
Format/Info : Audio Coding 3
Commercial name : Dolby Digital
Codec ID : A_AC3
Duration : 45 min 20 s
Bit rate mode : Constant
Bit rate : 128 kb/s
Channel(s) : 2 channels
Channel layout : L R
Sampling rate : 48.0 kHz
Frame rate : 31.250 FPS
Compression mode : Lossy
Delay relative to video : -5 ms
Stream size : 41.5 MiB (3%)
Title : Stereo
Service kind : Complete Main
Default : Yes
Forced : No

WWE Main Event

Complete name : WWE.Main.Event.2021.02.26.1080p.Hulu.x264-Star.mkv
Format : Matroska
Format version : Version 4
File size : 2.57 GiB
Duration : 45 min 20 s
Overall bit rate : 8 111 kb/s

Video
ID : 1
Format : AVC
Format/Info : Advanced Video
Duration : 45 min 20 s
Bit rate : 8 000 kb/s
Width : 1 920 pixels
Height : 1 080 pixels
Display aspect ratio : 16:9
Frame rate mode : Constant
Frame rate : 29.970 (30000/1001) FPS
Color space : YUV
Chroma subsampling : 4:2:0
Bit depth : 8 bits
Scan type : Progressive
Bits/(Pixel*Frame) : 0.129
Stream size : 2.48 GiB (96%)
Forced : No
Color range : Limited
Color primaries : BT.709
Transfer characteristics : BT.709
Matrix coefficients : BT.709

WWE Main Event

Audio
ID : 2
Format : AC-3
Format/Info : Audio Coding 3
Commercial name : Dolby Digital
Codec ID : A_AC3
Duration : 45 min 20 s
Bit rate mode : Constant
Bit rate : 128 kb/s
Channel(s) : 2 channels
Channel layout : L R
Sampling rate : 48.0 kHz
Frame rate : 31.250 FPS
Compression mode : Lossy
Delay relative to video : -5 ms
Stream size : 41.5 MiB (2%)
Title : Stereo
Service kind : Complete Main
Default : Yes
Forced : No

 Main Event

 

[collapse]

 

 

https://dx-tv.com/

You May Also Like