Watch WWE Main Event 2021 02 12 1080p DX-TV

Watch WWE Main Event 2021 02 12 1080p DX-TV

Watch WWE Main Event

 Watch WWE Main Event

 

 

 

Download Links with High Speed


 

Dopapk

 

 

Show Links

 

http://shrt10.com/Dom7YTMx
http://shrt10.com/tgPt8Xs

 

[collapse]

 

 

Nitroflare

 

 

Show Links

 

http://shrt10.com/ld9S0N
http://shrt10.com/gS85eDO

 

[collapse]

 

 

Rapidgator

 

 

Show Links

 

http://shrt10.com/xGeMkRk2
http://shrt10.com/kvpsGNB

 

[collapse]

 

 

Uploaded

 

 

Show Links

 

http://shrt10.com/ZXbnFVw
http://shrt10.com/Fkl8k

 

[collapse]

 

 

Watch online

 

Server 1

 

 

 

 

Watch WWE

 

 

 

 

Server-2

 

 

 

 

watch now

 

 

Uploaded By Site DX-TV.com

 

 

Show Info This Show

 

 
Complete name : WWE.Main.Event.2021.02.12.720p.Hulu.x264-Star.mkv
Format : Matroska
Format version : Version 4
File size : 1.36 GiB
Duration : 47 min 30 s
Overall bit rate : 4 108 kb/s

Watch WWE

Video
ID : 1
Format : AVC
Format/Info : Advanced Video
Duration : 47 min 30 s
Bit rate : 4 000 kb/s
Width : 1 280 pixels
Height : 720 pixels
Display aspect ratio : 16:9
Frame rate mode : Constant
Frame rate : 29.970 (30000/1001) FPS
Color space : YUV
Chroma subsampling : 4:2:0
Bit depth : 8 bits
Scan type : Progressive
Bits/(Pixel*Frame) : 0.145
Stream size : 1.29 GiB (95%)
Forced : No
Color range : Limited
Color primaries : BT.709
Transfer characteristics : BT.709
Matrix coefficients : BT.709

Watch WWE

Audio
ID : 2
Format : AC-3
Format/Info : Audio Coding 3
Commercial name : Dolby Digital
Codec ID : A_AC3
Duration : 47 min 30 s
Bit rate mode : Constant
Bit rate : 128 kb/s
Channel(s) : 2 channels
Channel layout : L R
Sampling rate : 48.0 kHz
Frame rate : 31.250 FPS (1536 SPF)
Compression mode : Lossy
Delay relative to video : -5 ms
Stream size : 43.5 MiB (3%)
Title : Stereo
Service kind : Complete Main
Default : Yes
Forced : No

Watch WWE

Complete name : WWE.Main.Event.2021.02.12.1080p.Hulu.x264-Star.mkv
Format : Matroska
Format version : Version 4
File size : 2.69 GiB
Duration : 47 min 30 s
Overall bit rate : 8 091 kb/s

Video
ID : 1
Format : AVC
Format/Info : Advanced Video
Duration : 47 min 30 s
Bit rate : 8 000 kb/s
Width : 1 920 pixels
Height : 1 080 pixels
Display aspect ratio : 16:9
Frame rate mode : Constant
Frame rate : 29.970 (30000/1001) FPS
Color space : YUV
Chroma subsampling : 4:2:0
Bit depth : 8 bits
Scan type : Progressive
Bits/(Pixel*Frame) : 0.129
Stream size : 2.59 GiB (96%)
Forced : No
Color range : Limited
Color primaries : BT.709
Transfer characteristics : BT.709
Matrix coefficients : BT.709

Watch WWE

Audio
ID : 2
Format : AC-3
Format/Info : Audio Coding 3
Commercial name : Dolby Digital
Codec ID : A_AC3
Duration : 47 min 30 s
Bit rate mode : Constant
Bit rate : 128 kb/s
Channel(s) : 2 channels
Channel layout : L R
Sampling rate : 48.0 kHz
Frame rate : 31.250 FPS
Compression mode : Lossy
Delay relative to video : -5 ms
Stream size : 43.5 MiB (2%)
Title : Stereo
Service kind : Complete Main
Default : Yes
Forced : No

 

 

[collapse]

 

 

https://dx-tv.com/