Watch WWE Main Event 2020 06 03 1080p

WWE Main Event 2020 06 03 1080p DX-TV

 

Watch WWE

 WWE Main Event

Watch WWE Main Event 2020 06 03 1080p

 

 

 

Complete name : WWE.Main.Event.2020.06.03.1080p.WEB.h264-W4F.mkv
Format : Matroska
Format version : Version 4
File size : 1.82 GiB
Duration : 43 min 42 s
Overall bit rate : 5 978 kb/s

Video
ID : 1
Format : AVC
Format/Info : Advanced Video Codec
wprofile : [email protected]
asettings : Watch WWE
Format settings, CABAC : Yes
Format settings, : 4 frames
Codec ID : V_MPEG4/ISO/AVC
Duration : 43 min 41 s
Bit rate : 5 912 kb/s
Width : 1 920 pixels
Height : 1 080 pixels
Display aspect ratio : 16:9
Frame rate mode : Constant
Frame rate : 29.970 (30000/1001) FPS
Color space : YUV
Chroma subsampling : 4:2:0
Bit depth : 8 bits
Scan type : Watch WWE
Bits/(Pixel*Frame) : 0.095
Stream size : 1.80 GiB (99%)
Default : Yes
Forced : No

Watch WWE Main Event 2020 06 03 1080p

Audio
ID : 2
Format : AAC LC SBR
Format/Info : Advanced
Commercial name : HE-AAC
Format settings : Watch WWE
Codec ID : A_AAC-2
Duration : 43 min 42 s
Bit rate : 64.0 kb/s
Channel(s) : 2 channels
Channel layout : L R
Sampling rate : 48.0 kHz
Frame rate : 23.438 FPS (2048 SPF)
Compression mode : Lossy
Stream size : 20.0 MiB (1%)
Default : Yes
Forced : Watch WWE

Text
ID : 3
Format : UTF-8
Codec ID : Watch WWE
Codec ID/Info : UTF-8 Plain Text
Duration : 43 min 33 s
Bit rate : 80 b/s
Count of elements : 1115
Stream size : 25.7 KiB (0%)
Language : English
Default : No
Forced : Watch WWE

 

 

 

 

Watch WWE Main Event 2020 06 03 1080p

 

 

 

Watch online

 

 

Server 1

 

 

 

 

watch now

 

 

 

 

Server 2

 

coming soon

 

watch now

 

 

 

Uploaded By Site DX-TV.com

 

 

 

Download with premium account LinksĀ 

 

 

Keep2Share

 

 

nitroflare.com

 

 

rapidgator.net

 

 

uploadgig.com

 

 

 

dx-tv.com

 

urlfree.net