Watch WWE Main Event 13 May 2020 online 1080p

WWE Main Event 13 May 2020 1080p DX-TV

 

Watch online

 WWE Main Event


 

 

Watch WWE Main Event 13 May 2020 online 1080p

 

Complete name : C:\DX\WWE\WWEMainEvent051320~3 By DX-TV.com.mp4
Format : MPEG-4
Format profile : Base Media
Codec ID : isom
File size : 2.00 GiB
Duration : 45 min 56 s
Overall bit rate : 6 226 kb/s
Writing application : Watch online

Video
ID : 1
Format : AVC
Format/Info : Advanced Video Codec
Codec ID : avc1
Codec ID/Info : Watch online
Duration : 45 min 56 s
Bit rate : 6 144 kb/s
Width : 1 920 pixels
Height : 1 080 pixels
Display aspect ratio : 16:9
Frame rate mode : Constant
Frame rate : 50.000 FPS
Color space : YUV
Chroma subsampling : 4:2:0
Bit depth : 8 bits
Scan type : Watch online
Bits/(Pixel*Frame) : 0.059
Stream size : 1.95 GiB (98%)
Writing library : x264 core 157

Audio
ID : 2
Format : AAC LC
Format/Info : Watch online
Codec ID : mp4a-40-2
Duration : 45 min 56 s
Bit rate mode : Constant
Bit rate : 129 kb/s
Channel(s) : 2 channels
Channel layout : L R
Sampling rate : 48.0 kHz
Frame rate : 46.875 FPS (1024 SPF)
Compression mode : Lossy
Stream size : 42.3 MiB (2%)
Default : Yes
Alternate group : Watch online

 

 

 

Watch online

 

 

Server 1

 

 

 

 

watch now

 

 

 

 

Server 2

 

 

 

watch now

 

 

 

Watch WWE Main Event 13 May 2020 online 1080p

 

 

Uploaded By Site DX-TV.com

 

 

 

Download with premium account Links 

 

 

Keep2Share

 

 

nitroflare.com

 

 

rapidgator.net

 

 

uploadgig.com

 

 

 

dx-tv.com

 

urlfree.net

Leave a Reply

Your email address will not be published. Required fields are marked *

This site uses Akismet to reduce spam. Learn how your comment data is processed.

%d bloggers like this: