Watch WWE Mae Young Classic S02E08 WEB HEEL /720p

Watch WWE Mae Young Classic S02E08 WEB HEEL /720p

 

 

 

 


 

 

 

dx-tv.com

 

 

 

 

Complete name : WWE.Mae.Young.Classic.S02E08.WEB.h264-HEEL.mp4
Format : MPEG-4
Format profile : Base Media
File size : 683 MiB
Duration : 52 min 53 s
Overall bit rate mode : Variable
Overall bit rate : 1 806 kb/s
Writing application : Lavf58.2.103

Video
ID : 1
Format : AVC
Format/Info : Advanced Video Codec
Codec ID/Info : Advanced Video Coding
Duration : 52 min 53 s
Bit rate mode : Constant
Bit rate : 1 704 kb/s
Width : 896 pixels
Height : 504 pixels
Display aspect ratio : 16:9
Frame rate mode : Constant
Frame rate : 29.970
Color space : YUV
Chroma subsampling : 4:2:0
Bit depth : 8 bits
Scan type : Progressive
Bits/(Pixel*Frame) : 0.126
Stream size : 645 MiB (94%)

Audio
ID : 2
Format : AAC
Format/Info : Advanced Audio Codec
Format profile : LC
Codec ID : mp4a-40-2
Duration : 52 min 53 s
Bit rate mode : Variable
Bit rate : 93.5 kb/s
Maximum bit rate : 94.5 kb/s
Channel(s) : 2 channels
Channel positions : Front: L R
Sampling rate : 48.0 kHz
Frame rate : 46.875 FPS (1024 SPF)
Compression mode : Lossy
Stream size : 35.4 MiB (5%)
Language : English
 

 

 

Watch WWE Mae Young Classic S02E08 WEB HEEL /720p

 

 

 

 

Watch online

 

 

Waiting finish converting video

 

 

Server 1

 

 

 

 

 

 

 

 

 

 

 

 

 

 

 

Server 2

 

 

 

 

 

 

 


 

 

 

 

 

 

Uploaded By Site DX-TV.com

 

 

 

open rar file to see this password

 

 

 

 

The password : DX-TV.com

 

 

 

 

Uploaded.net + rapidgator.net

 

 

 

 

http://shrt10.com/p7udVRsR
 

 

http://shrt10.com/tFTkgbz
 

 

http://shrt10.com/X9peGzaz

 

 
http://shrt10.com/MbX2y3
 

 

 

 

 

 

Watch WWE Mae Young Classic S02E08 WEB HEEL /720p

Leave a Reply

This site uses Akismet to reduce spam. Learn how your comment data is processed.