Watch WWE Mae Young Classic S02E01 WEB HEEL /720p

Watch WWE Mae Young Classic S02E01 WEB HEEL /720p

 

 

 

 


 

 

 

dx-tv.com

 

 

 

 

Complete name : WWE.Mae.Young.Classic.S02E01.WEB.h264-HEEL.mp4
Format : MPEG-4
Format profile : Base Media
File size : 697 MiB
Duration : 53 min 59 s
Overall bit rate mode : Constant
Overall bit rate : 1 806 kb/s
Writing application : Lavf58.2.103

Video
ID : 1
Format : AVC
Format/Info : Advanced Video Codecs
Codec ID : avc1
Codec ID/Info : Advanced Video Coding
Duration : 53 min 59 s
Duration_FirstFrame : 5 ms
Bit rate mode : Constant
Bit rate : 1 704 kb/s
Width : 896 pixels
Height : 504 pixels
Display aspect ratio : 16:9
Frame rate mode : Constant
Frame rate : 29.970
Color space : YUV
Chroma subsampling : 4:2:0
Bit depth : 8 bits
Scan type : Progressive
Bits/(Pixel*Frame) : 0.126
Stream size : 658 MiB (94%)

Audio
ID : 2
Format : AAC
Format/Info : Advanced Audio Codec
Format profile : LC
Codec ID : mp4a-40-2
Duration : 53 min 59 s
Bit rate mode : Constant
Bit rate : 93.5 kb/s
Channel(s) : 2 channels
Channel positions : Front: L R
Sampling rate : 48.0 kHz
Frame rate : 46.875 FPS
Compression mode : Lossy
Stream size : 36.1 MiB (5%)
Language : English
Default : Yes
 

 

 

 

Title: WWE.Mae.Young.Classic.S02E01.720p.WEB.h264-HEEL
Released: 2018.09.05
Source: WWE Network
Resolution: 1280 x 720 @ 29.970 FPS
Video: H.264 @ 4500 kbps
Audio: AAC @ 128 kbps
Size: 1.69 GB
Runtime: 53mn 59sec
 

 

 

 

 

 

Watch WWE Mae Young Classic S02E01 WEB HEEL /720p

 

 

 

 

Watch online

 

 

Waiting finish converting video

 

 

Server 1

 

 

 

 

 

 

 

 

 

 

 

 

 

 

 

 

 

 

 

 

Server 2

 

 

 

 

 

 


 

 

 

 

 

 

 

Uploaded By Site DX-TV.com

 

 

 

open rar file to see this password

 

 

 

 

The password : DX-TV.com

 

 

 

 

Uploaded.net + rapidgator.net

 

 

 

 

 

http://shrt10.com/B0ubEAQ5
 

 

 

http://shrt10.com/0QrAl
 

 

 

http://shrt10.com/FjVB
 

 

 

http://shrt10.com/Bl7V
 

 

 

 

Watch WWE Mae Young Classic S02E01 WEB HEEL /720p