Watch WWE Mae Young Classic S02E00 Bracketology 720p WEB HEEL

Watch WWE Mae Young Classic S02E00 Bracketology 720p WEB HEEL

 

 

 

 


 

 

dx-tv.com

 

 

 

 

 

 

 
Complete name : WWE.Mae.Young.Classic.S02E00.Bracketology.720p.WEB.h264-HEEL.mp4
Format : MPEG-4
Format profile : Base Media
File size : 1.41 GiB
Duration : 44 min 51 s
Overall bit rate mode : Variable
Overall bit rate : 4 491 kb/s
Writing application : Lavf58.2.103

Video
ID : 1
Format : AVC
Format/Info : Advanced Video Codec
Codec ID/Info : Advanced Video Coding
Duration : 44 min 51 s
Bit rate mode : Variable
Bit rate : 4 389 kb/s
Maximum bit rate : 5 500 kb/s
Width : 1 280 pixels
Height : 720 pixels
Display aspect ratio : 16:9
Frame rate mode : Constant
Frame rate : 29.970
Color space : YUV
Chroma subsampling : 4:2:0
Bit depth : 8 bits
Scan type : Progressive
Bits/(Pixel*Frame) : 0.159
Stream size : 1.38 GiB (98%)

Audio
ID : 2
Format : AAC
Format/Info : Advanced Audio Codec
Format profile : LC
Codec ID : mp4a-40-2
Duration : 44 min 51 s
Bit rate mode : Variable
Bit rate : 96.0 kb/s
Channel(s) : 2 channels
Channel positions : Front: L R
Sampling rate : 48.0 kHz
Frame rate : 46.875 FPS
Compression mode : Lossy
Stream size : 30.0 MiB (2%)
Default : Yes

 

 

 

 

 

Watch WWE Mae Young Classic S02E00 Bracketology 720p WEB HEEL

 

 

 

 

Watch online

 

 

Waiting finish converting video

 

 

Server 1

 

 

 

 

 

 

 

 

 

 

 

 

 

 

 

Server 2

 

 

 

 

 

 

 


 

 

 

 

 

 

Uploaded By Site DX-TV.com

 

 

 

open rar file to see this password

 

 

 

 

The password : DX-TV.com

 

 

 

 

 

 

Uploaded.net + rapidgator.net

 

 

 

 

 

 
http://shrt10.com/uiSmxHHF

 

 
http://shrt10.com/e1w2OFG
 

 

 

 

 

 

 

 

 

Watch WWE Mae Young Classic S02E00 Bracketology 720p WEB HEEL

Leave a Reply

This site uses Akismet to reduce spam. Learn how your comment data is processed.

Support HVIPS

Please Disable Ad-Block To View This site. just help us to continue this work