Watch WWE Hell In A Cell 2020 PPV Full Show Online

WWE Hell In A Cell 2020 PPV Full Show Online DX-TV

Watch WWE Hell In A Cell 2020

 

 Watch WWE Hell In A Cell 2020
 


 

 

Watch WWE Hell In A Cell 2020 PPV Full Show Online

 

Universal Champion Roman Reigns def. Jey Uso (Hell in a Cell “I Quit” Match)

Roman Reigns backed up everything he said he’d do at WWE Hell in a Cell, showing no mercy for his family,

as he defeated Jey Uso to retain the Universal Championship in one of the most emotionally torrid clashes in WWE history.

The 42nd Hell in a Cell Match proved to be one of the most unique, as it was the first to be contested under “I Quit” rules.

Both Superstars resorted to heavy artillery early, as Reigns delivered two Spears ,

before Jey countered a third and answered with two Uso Splashes. 

Watch WWE Hell In A Cell 2020

But neither man even appeared to consider quitting, and the brutality quickly escalated.

Uso introduced a strap from under the ring,

before Reigns uncorked a third Spear on his cousin and turned the strap around on him,

punishing him with unforgiving lashings. Jey fought back, though,

and nearly squeezed the life out of Reigns until The Big Dog hit a Superman Punch and put him out with a Guillotine. 

 WWE Hell In A Cell 2020

Complete name : WWE.Hell.In.A.Cell.2020.PPV.WEB.h264-HEEL.mp4
Format : MPEG-4
Format profile : Base Media
Codec ID : isom
File size : 2.20 GiB
Duration : 2 h 57 min
Overall bit rate mode : Variable
Overall bit rate : 1 771 kb/s
Law rating : N/A
Writing application : Lavf58.32.104

Watch WWE Hell In A Cell 2020

Video
ID : 1
Format : AVC
Codec ID/Info : Advanced Video
Duration : 2 h 57 min
Bit rate mode : Variable
Bit rate : 1 638 kb/s
Maximum bit rate : 1 663 kb/s
Width : 896 pixels
Height : 504 pixels
Display aspect ratio : 16:9
Frame rate mode : Variable
Frame rate : 30.000 FPS
Minimum frame rate : 29.412 FPS
Maximum frame rate : 30.303 FPS
Standard : NTSC
Color space : YUV
Chroma subsampling : 4:2:0
Bit depth : 8 bits
Scan type : Progressive
Bits/(Pixel*Frame) : 0.121
Stream size : 2.03 GiB (92%)
Color range : Limited
Color primaries : BT.709
Transfer characteristics : BT.709
Matrix coefficients : BT.709
Codec configuration box : avcC

 WWE Hell In A Cell 2020

Audio
ID : 2
Format : AAC LC
Format/Info : Advanced Audio
Codec ID : mp4a-40-2
Duration : 2 h 57 min
Bit rate mode : Constant
Bit rate : 125 kb/s
Channel(s) : 2 channels
Channel layout : L R
Sampling rate : 48.0 kHz
Frame rate : 46.875 FPS (1024 SPF)
Compression mode : Lossy
Stream size : 159 MiB (7%)
Default : Yes
Alternate group : 1

Text #1
ID : 1-CC1
Format : EIA-608
Muxing mode : SCTE 128 / DTVCC Transport
Muxing mode, more info : Muxed in Video #1
Duration : 2 h 57 min
Bit rate mode : Constant
Stream size : 0.00 Byte (0%)
CaptionServiceName : CC1

Watch WWE Hell In A Cell 2020

Text #2
ID : 1-CC3
Format : EIA-608
Muxing mode : SCTE 128 / DTVCC Transport
Muxing mode, more info : Muxed in Video #1
Duration : 2 h 57 min
Bit rate mode : Constant
Stream size : 0.00 Byte (0%)
CaptionServiceName : CC3

Text #3
ID : 1-1
Format : EIA-708
Muxing mode : SCTE 128 / DTVCC Transport
Muxing mode, more info : Muxed in Video #1
Duration : 2 h 57 min
Bit rate mode : Constant
Stream size : 0.00 Byte (0%)

Watch WWE Hell In A Cell 2020

Text #4
ID : 1-2
Format : EIA-708
Muxing mode : SCTE 128 / DTVCC Transport
Muxing mode, more info : Muxed in Video #1
Duration : 2 h 57 min
Bit rate mode : Constant
Stream size : 0.00 Byte (0%)

 

 

 

Watch WWE Hell In A Cell 2020 PPV Full Show Online

 

 

Watch online

 

 

Server 1

 

 

 

 

Watch WWE Hell In A Cell 2020

 

 

 

Server-2

 

 

 

watch now

 

 

 

 

Uploaded By Site DX-TV.com

 

 

 

 

Download Free Links with normal and high Speed [ more 14 hosts ]  

 

[su_expand more_text=”Show Hosts Info” less_text=”Close all Info” height=”30″ text_color=”#000000″ link_color=”#e25f8b” link_style=”button” more_icon=”icon: arrow-down” less_icon=”icon: arrow-up”]

Watch WWE Hell In A Cell 2020

 

hexupload.net – clicknupload.co – www.multiup.org – uptobox.com – anonfiles.com – userscloud.com –

dropapk.to alfafile.net – ddownload.com – rockfile.co – 1fichier.com – filedown.org – katfile.com – filerio.in

 

 

[/su_expand]

 

 

http://shrt10.com/Sc5RZ
http://shrt10.com/ZBy9BOFd5
http://shrt10.com/LAKVY
http://shrt10.com/qCBJMzA
http://shrt10.com/bz9Z7Q
http://shrt10.com/jOF7czfi
http://shrt10.com/zkHqC
http://shrt10.com/wfoAows9
http://shrt10.com/BzkAHl

 

 

 

 

Download Links with premium High Speed   

 

 

 

dropapk.to

 

 

 

nitroflare.com

 

 

 

rapidgator.net

 

 

 

uploaded.net

 

 

 

uploadgig.com

 

 

 

 

 

dx-tv.com

 

urlfree.net

Leave a Reply

Your email address will not be published. Required fields are marked *

This site uses Akismet to reduce spam. Learn how your comment data is processed.