Watch WWE Hell In A Cell 2018 Kickoff WEB HEEL mp4

Watch WWE Hell In A Cell 2018 Kickoff WEB HEEL mp4

 

 

 

 


 

 

dx-tv.com

 

 

 

 

 

Complete name : WWE.Hell.In.A.Cell.2018.Kickoff.WEB.h264-HEEL.mp4
Format : MPEG-4
Format profile : Base Media
File size : 772 MiB
Duration : 59 min 48 s
Overall bit rate mode : Variable
Overall bit rate : 1 804 kb/s
Writing application : Lavf58.2.103

Video
ID : 1
Format : AVC
Format/Info : Advanced Video Codec
Codec ID : avc1
Codec ID/Info : Advanced Video Coding
Duration : 59 min 48 s
Duration_FirstFrame : 6 ms
Bit rate mode : Constant
Bit rate : 1 704 kb/s
Width : 896 pixels
Height : 504 pixels
Display aspect ratio : 16:9
Frame rate mode : Constant
Frame rate : 29.970
Color space : YUV
Chroma subsampling : 4:2:0
Bit depth : 8 bits
Scan type : Progressive
Bits/(Pixel*Frame) : 0.126
Stream size : 729 MiB (94%)

Audio
ID : 2
Format : AAC
Format/Info : Advanced Audio Codec
Format profile : LC
Codec ID : mp4a-40-2
Duration : 59 min 48 s
Bit rate mode : Variable
Bit rate : 93.5 kb/s
Maximum bit rate : 94.5 kb/s
Channel(s) : 2 channels
Channel positions : Front: L R
Sampling rate : 48.0 kHz
Frame rate : 46.875 FPS
Compression mode : Lossy
Stream size : 40.0 MiB (5%)
Language : English
Default : Yes
Alternate group : 1
 

 

 

 

 

 

 

Watch WWE Hell In A Cell 2018 Kickoff WEB HEEL mp4

 

 

 

 

Watch online

 

 

Waiting finish converting video

 

 

Server 1

 

 

 

 

 

 

 

 

 

 

 

 

 

 

 

Server 2

 

 

 

 

 

 

 


 

 

 

 

 

Uploaded By Site DX-TV.com

 

 

 

open rar file to see this password

 

 

 

 

The password : DX-TV.com

 

 

 

 

 

 

Uploaded.net + rapidgator.net

 

 

 

 

 

http://shrt10.com/RT8fkm4

 

 

 

 

http://shrt10.com/Dz1ci0j
 

 

 

Watch WWE Hell In A Cell 2018 Kickoff WEB HEEL mp4