WWE Elimination Chamber 2018 PPV 720p WEB HEEL

WWE Elimination Chamber 2018 PPV 720p WEB HEEL

 

 

 

 

 

 

wwe

 

 

 

 

 

 

 
Complete name : WWE.Elimination.Chamber.2018.PPV.720p.WEB.h264-HEEL.mp4
Format : MPEG-4
Format profile : Base Media
Codec ID : isom
File size : 6.38 GiB
Duration : 3h 22mn
Overall bit rate : 4 508 Kbps
Writing application : Lavf58.2.103

Video
ID : 1
Format : AVC
Format/Info : Advanced Video Codec
Codec ID : avc1
Codec ID/Info : Advanced Video Coding
Duration : 3h 22mn
Bit rate mode : Constant
Bit rate : 4 372 Kbps
Width : 1 280 pixels
Height : 720 pixels
Display aspect ratio : 16:9
Frame rate mode : Constant
Frame rate : 29.970 fps
Color space : YUV
Chroma subsampling : 4:2:0
Bit depth : 8 bits
Scan type : Progressive
Bits/(Pixel*Frame) : 0.158
Stream size : 6.19 GiB (97%)

Audio
ID : 2
Format : AAC
Format/Info : Advanced Audio Codec
Format profile : LC
Codec ID : 40
Duration : 3h 22mn
Bit rate mode : Constant
Bit rate : 125 Kbps
Channel(s) : 2 channels
Channel positions : Front: L R
Sampling rate : 48.0 KHz
Compression mode : Lossy
Stream size : 182 MiB (3%)
Language : English
 

 

 

 

 

 

 

 

 

 

WWE Elimination Chamber 2018 PPV 720p WEB HEEL

 

 

 

 

 

Uploaded By Site DX-TV.com

 

 

 

open rar file to see this password

 

 

 

 

The password is : DX-TV.com

 

 

 

 

720p

 

 

 

 

 

Uploaded.net + rapidgator.net

 

 

 

 

 

http://shrt10.com/Zm973S0

 

http://shrt10.com/eWND

 

http://shrt10.com/aQEgps

 

http://shrt10.com/iawTSwP

 

 

 

 

 

http://shrt10.com/KMmVMO

 

http://shrt10.com/L6Db1g

 

http://shrt10.com/NesJ

 

http://shrt10.com/Fnkypxl

 

 

 

 

 

 

 

 

 

 

 

 

WWE Elimination Chamber 2018 PPV 720p WEB HEEL