Watch WWE clash of champions PPV 2020 HDTV DX-TV

WWE clash of champions PPV 2020 HDTV DX-TV

 

clash of champions PPV 2020

 

 clash of champions PPV 2020
 


 

 

Watch WWE clash of champions PPV 2020 HDTV DX-TV

 

 

 

 

Complete name : WWE.Clash.OF.Champions.2020.PPV.HDTV.x264 DX-TV.mp4
Format : MPEG-4
Format profile : Base Media / Version 2
Codec ID : mp42 (isom/iso2/avc1/mp41)
File size : 2.67 GiB
Duration : 3 h 13 min
Overall bit rate : 1 980 kb/s

clash of champions PPV 2020

Video
ID : 1
Format : AVC
Codec ID : avc1
Codec ID/Info : Advanced
Duration : 3 h 13 min
Bit rate : 1 811 kb/s
Width : 720 pixels
Height : 480 pixels
Display aspect ratio : 16:9
Original display aspect rat : 16:9
Frame rate mode : Variable
Frame rate : 30.000 FPS  
Color space : YUV
Chroma subsampling : 4:2:0
Bit depth : 8 bits
Scan type : Progressive
Bits/(Pixel*Frame) : 0.175
Stream size : 2.45 GiB (91%)
Color range : Limited
Color primaries : BT.709
Transfer characteristics : BT.709
Matrix coefficients : BT.709
Codec configuration box : avcC

clash of champions PPV 2020

Audio
ID : 2
Format : AAC LC
Format/Info : Advanced Audio
Codec ID : mp4a-40-2
Duration : 3 h 13 min
Bit rate mode : Constant
Bit rate : 160 kb/s
Channel(s) : 2 channels
Channel layout : L R
Sampling rate : 48.0 kHz
Frame rate : 46.875 FPS (1024 SPF)
Compression mode : Lossy
Stream size : 222 MiB (8%)
Title : Stereo
Language : English
Default : Yes
Alternate group : 1

clash of champions PPV 2020

WWE Raw Tag Team Championship: The Street Profits (Angelo Dawkins and Montez Ford) (c) vs Andrade and Angel Garza

Like the SmackDown match-up, few could argue with the quality on offer here, but this match-up feels a little more stale in comparison.

The Street Profits have had a comfortable 200+ day reign as tag team champs. Almost too comfortable, to be honest.

They’ve had some serious competition, sure, but have never quite looked like losing their titles and there may just be the smallest amount of complacency creeping in.

For their part, Andrade and Angel Garza’s relationship started off a little less well-gelled than their opponents, but over time they’ve become more and more formidable – even with Zelina Vega now going solo.

Angel Garza will want to build on his sole NXT Cruiserweight Championship, and for all his talent, Andrade only has one NXT Championship and (an albeit lengthy) US Championship reign to show for it.

We’ll stick our necks out and give this one to the challengers.

PREDICTION: Andrade and Angel Garza

clash of champions PPV 2020

WWE United States Championship: Bobby Lashley (c) vs Apollo Crews

A brand new(ish) sparkly US Title, but this match-up also seems a little bit stale, with these two having gone round and about a few times for it over the last few months.

That doesn’t mean that this won’t be an entertaining match, but we don’t exactly expect it to be a classic that people will be talking about for years to come.

It’s time for the hot potato of the title between the pair to end, which means that Bobby Lashley needs to mark the 15 odd years since his (original) WWE debut with a victory.

While he lacks the same gymnastic athleticisim, the fact that he has a decade’s more experience over his opponent will give him the edge.

 

Watch WWE clash of champions PPV 2020 HDTV DX-TV

 

 

 

 

Watch online

 

 

 

 

 

Server 1

 

 

 

 

watch now

 

 

 

 

Server-2

 

 

 

watch now

 

 

 

 

Server-3

 

 

 

clash of champions PPV 2020

 

 

 

 

Uploaded By Site DX-TV.com

 

 

 

 

 

Download Links with premium High Speed   

 

 

 

 

nitroflare.com

 

 

 

rapidgator.net

 

 

 

 

uploadgig.com

 

 

 

 

 

dx-tv.com

 

urlfree.net

Leave a Reply

Your email address will not be published. Required fields are marked *

This site uses Akismet to reduce spam. Learn how your comment data is processed.