Watch WWE Chronicle S01E08 Roman Reigns Part 2 WEB HEEL /720p

 

 

 

 


 

 

 

dx-tv.com

 

 

 

 

Complete name : WWE.Chronicle.S01E08.Roman.Reigns.Part.2.720p.WEB.h264-HEEL.mp4
Format : MPEG-4
Format profile : Base Media
Codec ID : isom
File size : 1.33 GiB
Duration : 42mn 12s
Overall bit rate : 4 500 Kbps
Writing application : Lavf58.26.101

Video
ID : 1
Format : AVC
Format/Info : Advanced Video Codec
Format settings, CABAC : Yes
Format settings, ReFrames : 4 frames
Codec ID : avc1
Codec ID/Info : Advanced Video Coding
Duration : 42mn 12s
Bit rate mode : Constant
Bit rate : 4 372 Kbps
Width : 1 280 pixels
Height : 720 pixels
Display aspect ratio : 16:9
Frame rate mode : Constant
Frame rate : 29.970 fps
Color space : YUV
Chroma subsampling : 4:2:0
Bit depth : 8 bits
Scan type : Progressive
Bits/(Pixel*Frame) : 0.158
Stream size : 1.29 GiB (97%)

Audio
ID : 2
Format : AAC
Format/Info : Advanced Audio Codec
Format profile : LC
Codec ID : 40
Duration : 42mn 12s
Bit rate mode : Variable
Bit rate : 125 Kbps
Maximum bit rate : 127 Kbps
Channel(s) : 2 channels
Channel positions : Front: L R
Sampling rate : 48.0 KHz
Compression mode : Lossy
Stream size : 37.9 MiB (3%)
Language : English
 

 

 

 


 

 

 

Watch WWE Chronicle S01E08 Roman Reigns Part 2 WEB HEEL /720p

 

 

 

 

Watch online

 

 

Waiting finish converting video

 

 

Server 1

 

 

 

 

 

 

 

 

 


 

 

 

 

Server 2

 

 

 

 

 

 


 

 

 


 

 

 

Uploaded By Site DX-TV.com

 

 

 

open rar file to see this password

 

 

 

 

The password : DX-TV.com

 

 

 

 

Uploaded.net + rapidgator.net

 

 

 

 


 

 

 

https://shrt10.com/k0E8Q
 

 

 
https://shrt10.com/ih0tlZ
 

 

 
https://shrt10.com/YP9U
 

 

 
https://shrt10.com/kKsVjl

 

 

 

 

Watch WWE Chronicle S01E08 Roman Reigns Part 2 WEB HEEL /720p