Watch WWE Chronicle S01E02 Samoa Joe 1080p WEB HEEL

Watch WWE Chronicle S01E02 Samoa Joe 1080p WEB HEEL

 

 

 

 


 

 

 

dx-tv.com

 

 

 

 

Complete name : WWE.Chronicle.S01E02.Samoa.Joe.1080p.WEB.h264-HEEL.mp4
Format : MPEG-4
Format profile : Base Media
File size : 2.10 GiB
Duration : 45 min 38 s
Overall bit rate mode : Variable
Overall bit rate : 6 591 kb/s
Writing application : Lavf58.13.102

Video
ID : 1
Format : AVC
Format/Info : Advanced Video Codec
Codec ID/Info : Advanced Video Coding
Duration : 45 min 38 s
Bit rate mode : Variable
Bit rate : 6 500 kb/s
Width : 1 920 pixels
Height : 1 080 pixels
Display aspect ratio : 16:9
Frame rate mode : Variable
Frame rate : 30.000 FPS
Minimum frame rate : 29.412 FPS
Maximum frame rate : 30.303 FPS
Color space : YUV
Chroma subsampling : 4:2:0
Bit depth : 8 bits
Scan type : Progressive
Bits/(Pixel*Frame) : 0.104
Stream size : 2.06 GiB (98%)

Audio
ID : 2
Format : AAC
Format/Info : Advanced Audio Codec
Format profile : LC
Codec ID : mp4a-40-2
Duration : 45 min 37 s
Bit rate mode : Constant
Bit rate : 125 kb/s
Channel(s) : 2 channels
Channel positions : Front: L R
Sampling rate : 48.0 kHz
Frame rate : 46.875 FPS (1024 SPF)
Compression mode : Lossy
Stream size : 40.9 MiB (2%)
Default : Yes
Alternate group : 1

 

 

 

 

 

 

 

Watch WWE Chronicle S01E02 Samoa Joe 1080p WEB HEEL

 

 

 

 

Watch online

 

 

Waiting finish converting video

 

 

Server 1

 

 

 

 

 

 

 

 

 

 

 

 

 

 

 

 

 

 

 

 

Server 2

 

 

 

 

 

 

 


 

 

 

 

 

 

Uploaded By Site DX-TV.com

 

 

 

open rar file to see this password

 

 

 

 

The password : DX-TV.com

 

 

 

 

Uploaded.net + rapidgator.net

 

 

 

 

http://shrt10.com/XOoxf3

 

 

 

 

 

http://shrt10.com/rdUKV

 

 

 

 

 

 

 

 

 

Watch WWE Chronicle S01E02 Samoa Joe 1080p WEB HEEL