Watch WWE Brothers of Destruction 2020 11 15 720p

WWE Brothers of Destruction 2020 11 15 720p DX-TV

WWE Brothers of Destruction 2020

 

 WWE Brothers of Destruction 2020

 

Watch WWE Brothers of Destruction 2020 11 15 720p

 

 

 

 

Complete name : WWE Brothers of Destruction 2020 11 15 720p WEB H264 DX-TV.com.mp4
Format : MPEG-4
Format profile : Base Media
Codec ID : isom
File size : 1.13 GiB
Duration : 46 min 39 s
Overall bit rate mode : Variable
Overall bit rate : 3 475 kb/s
Recorded date : 2020
Writing application : Lavf58.25

WWE Brothers of Destruction 2020

Video
ID : 1
Format : AVC
Duration : 46 min 39 s
Bit rate : 3 372 kb/s
Width : 1 280 pixels
Height : 720 pixels
Display aspect ratio : 16:9
Frame rate mode : Constant
Frame rate : 30.000 FPS
Color space : YUV
Chroma subsampling : 4:2:0
Bit depth : 8 bits
Scan type : Progressive
Bits/(Pixel*Frame) : 0.122
Stream size : 1.09 GiB (96%)

WWE Brothers of Destruction 2020

Audio
ID : 2
Format : AAC LC
Format/Info : Advanced  
Codec ID : mp4a-40-2
Duration : 46 min 39 s
Bit rate mode : Variable
Bit rate : 128 kb/s
Maximum bit rate : 209 kb/s
Channel(s) : 2 channels
Channel layout : L R
Sampling rate : 48.0 kHz
Frame rate : 46.875 FPS
Compression mode : Lossy
Stream size : 42.8 MiB (4%)
Default : Yes
Alternate group : 1

WWE Brothers of Destruction 2020

NXT UK welcomes a game-changing Superstar, WWE The Day Of brings you behind the scenes of WWE Hell in a Cell,

and The Undertaker and Kane sit down to discuss their storied careers this week on WWE Network.

Set your reminder now: After weeks of anticipation, legendary brawler Rampage Brown is set to make his NXT UK in-ring debut this Thursday.

News of Brown’s signing sent shockwaves throughout the sports-entertainment world, and the NXT UK Universe will finally get to see what all the buzz is about this week.

Plus, “Bomber” Dave Mastiff takes on British Strong Style’s Trent Seven in the Heritage Cup Tournament Semifinals, with the victor securing his spot in the Finals against A-Kid.

This Friday, WWE The Day Of will give you a whole new perspective on one of the most dangerous battlegrounds in WWE, Hell in a Cell.

See how Superstars like Sasha Banks, Randy Orton and Jey Uso prepared for their barbaric fights at this year’s event.

WWE The Day Of WWE Hell in a Cell 2020 will also be available on demand on the Free Version of WWE Network.

WWE Brothers of Destruction 2020

Then on Sunday, get ready for Brothers of Destruction. This brand-new documentary,

which premiered to rave reviews at this year’s Austin Film Festival, is part of WWE’s ongoing 30 Days of The Deadman celebration.

A chance to hear The Undertaker and Kane trade war stories and talk candidly about their incredible legacies .

as both rivals and teammates? Trust us, you won’t want to miss it.

Of course, that’s not even close to all that’s on tap for this week.

From daily Conversation Series (featuring John Cena, Rey & Dominik Mysterio, and more).

to Pete Dunne on WWE’s The Bump, there’s no shortage of must-see shows.

 

Watch WWE Brothers of Destruction 2020 11 15 720p

 

Watch online

 

 

Server 1

 

 

 

 

 

 

 

 

Server-2

 

 

 

 

 

 

 

 

Uploaded By Site DX-TV.com

 

 

 

 

Download Free Links with normal and high Speed [ more 14 hosts ]  

 

[su_expand more_text=”Show Hosts Info” less_text=”Close all Info” height=”30″ text_color=”#000000″ link_color=”#e25f8b” link_style=”button” more_icon=”icon: arrow-down” less_icon=”icon: arrow-up”]

 

WWE Brothers of Destruction 2020

hexupload.net – clicknupload.co – www.multiup.org

– uptobox.com – anonfiles.com – userscloud.com –

dropapk.to alfafile.net – ddownload.com – rockfile.co

– 1fichier.com – filedown.org – katfile.com – filerio.in

 

 

[/su_expand]

 

http://shrt10.com/Bg447
http://shrt10.com/yYtu0
http://shrt10.com/ESKpvM4d
http://shrt10.com/TSZvvYe
http://shrt10.com/JGDFJSq
http://shrt10.com/EduXYY
http://shrt10.com/ZOVioek5
http://shrt10.com/pkvAVUDQ

 

 

 

 

 

Download Links with premium High Speed   

 

 

 

 

dropapk.to

 

 

 

nitroflare.com

 

 

 

rapidgator.net

 

 

 

uploaded.net

 

 

 

uploadgig.com

 

 

 

 

 

dx-tv.com

 

urlfree.net

You May Also Like

Leave a Reply

Your email address will not be published. Required fields are marked *

This site uses Akismet to reduce spam. Learn how your comment data is processed.