Watch WWE Backstage 20 May 2020 720p

WWE Backstage 20 May 2020 720p HDTV NWCHD DX-TV

 

WWE

 WWE Backstage
 

Watch WWE Backstage 20 May 2020 720p

 

 

Complete name : WWE.Backstage.2020.05.20.720p.HDTV.x264-NWCHD.mp4
Format : MPEG-4
Format profile : Base Media / Version 2
Codec ID : WWE
File size : 1.45 GiB
Duration : 43 min 59 s
Overall bit rate mode : Variable
Overall bit rate : 4 710 kb/s

Video
ID : 1
Format : AVC
Format/Info : Advanced
Codec ID/Info : WWE
Duration : 43 min 59 s
Bit rate : 4 500 kb/s
Width : 1 280 pixels
Height : 720 pixels
Display aspect ratio : 16:9
Frame rate mode : WWE
Frame rate : 29.970 (30000/1001) FPS
Color space : YUV
Chroma subsampling : 4:2:0
Bit depth : 8 bits
Scan type : Progressive
Bits/(Pixel*Frame) : 0.163
Stream size : 1.39 GiB (96%)
Color range : Limited
Color primaries : BT.709
Transfer characteristics : WWE
Matrix coefficients : BT.709
Codec configuration box : avcC

Audio
ID : 2
Format : AAC LC
Format/Info : WWE
Codec ID : mp4a-40-2
Duration : 43 min 59 s
Bit rate mode : Variable
Bit rate : 192 kb/s
Channel(s) : 2 channels
Channel layout : WWE
Sampling rate : 48.0 kHz
Frame rate : 46.875 FPS (1024 SPF)
Compression mode : Lossy
Stream size : 60.0 MiB (4%)
Title : Stereo / Stereo
Default : Yes
Alternate group : WWE

 

 

 

Watch online

 

 

Server 1

 

 

 

 

watch now

 

 

 

 

Server 2

 

 

 

watch now

 

 

Watch WWE Backstage 20 May 2020 720p

 

 

Uploaded By Site DX-TV.com

 

 

 

Download with premium account LinksĀ 

 

 

Keep2Share

 

 

nitroflare.com

 

 

rapidgator.net

 

 

uploadgig.com

 

 

 

dx-tv.com

 

urlfree.net