Watch WWE 24 S01E30 Keith Lee 1080p DX-TV

Watch WWE 24 S01E30 Keith Lee 1080p DX-TV

Watch WWE 24 S01E30 Keith Lee

 

 Watch WWE 24 S01E30 Keith Lee

 

[su_expand more_text=”Show More Info” less_text=”Close all Info” height=”50″ text_color=”#000000″ link_color=”#e25f8b” link_style=”button” more_icon=”icon: arrow-down” less_icon=”icon: arrow-up”]

Complete name : WWE.24.S01E30.Keith.Lee.1080p.WEB.h264-HEEL.mp4
Format : MPEG-4
Format profile : Base Media
Codec ID : isom
File size : 2.85 GiB
Duration : 51 min 36 s
Overall bit rate mode : Variable
Overall bit rate : 7 909 kb/s
Writing application : Lavf58.32.104

  WWE 24 S01E30 Keith Lee

Video
ID : 1
Format : AVC
Duration : 51 min 36 s
Bit rate : 7 808 kb/s
Width : 1 920 pixels
Height : 1 080 pixels
Display aspect ratio : 16:9
Frame rate mode : Constant
Frame rate : 30.000 FPS
Color space : YUV
Chroma subsampling : 4:2:0
Bit depth : 8 bits
Scan type : Progressive
Bits/(Pixel*Frame) : 0.126
Stream size : 2.78 GiB (97%)

 WWE 24 S01E30 Keith Lee

Audio
ID : 2
Format : AAC LC
Format/Info : Advanced Audio
Codec ID : mp4a-40-2
Duration : 51 min 36 s
Bit rate mode : Variable
Bit rate : 192 kb/s
Maximum bit rate : 272 kb/s
Channel(s) : 2 channels
Channel layout : L R
Sampling rate : 48.0 kHz
Frame rate : 46.875 FPS (1024 SPF)
Compression mode : Lossy
Stream size : 71.0 MiB (2%)
Default : Yes
Alternate group : 1

 

 WWE 24 S01E30 Keith Lee

[/su_expand]

 

 

Watch online

 

Server 1

 

 

 

 

Watch WWE 24 S01E30 Keith Lee

 

 

 

 

Server-2

 

 

 

 

watch now

 

 

 

 

Uploaded By Site DX-TV.com

 WWE 24 S01E30 Keith Lee

 

Download Links with premium High Speed   

 

 

 

 

dropapk.to

 

 

 

nitroflare.com

 

 

 

rapidgator.net

 

 

 

uploaded.net

 

 

 

uploadgig.com

 

 

https://dx-tv.com/free-ufc-fight-night-184-smith-vs-clark-720p-1080p-dx-tv/

Leave a Reply

Your email address will not be published. Required fields are marked *

This site uses Akismet to reduce spam. Learn how your comment data is processed.