Watch WWE 24 S01E29 Drew McIntyre Free Online

WWE 24 S01E29 Drew McIntyre 1080p DX-TV

 

Watch WWE

 

Watch WWE
 


 

 

Watch WWE 24 S01E29 Drew McIntyre Free Online

 

 

Complete name : WWE.24.S01E29.Drew.McIntyre.1080p.WEB.h264-HEEL.mp4
Format : MPEG-4
Format profile : Base Media
Codec ID : isom
File size : 3.67 GiB
Duration : 1 h 6 min
Overall bit rate : 7 955 kb/s
Writing application : Lavf58.32.104

Watch WWE

Video
ID : 1
Format : AVC
Duration : 1 h 6 min
Bit rate : 7 808 kb/s
Width : 1 920 pixels
Height : 1 080 pixels
Display aspect ratio : 16:9
Frame rate mode : Constant
Frame rate : 30.000 FPS
Color space : YUV
Chroma subsampling : 4:2:0
Bit depth : 8 bits
Scan type : Progressive
Bits/(Pixel*Frame) : 0.126
Stream size : 3.58 GiB (97%)

Watch WWE

Audio
ID : 2
Format : AAC LC
Format/Info : Advanced Audio
Codec ID : mp4a-40-2
Duration : 1 h 6 min
Bit rate mode : Constant
Bit rate : 192 kb/s
Channel(s) : 2 channels
Channel layout : L R
Sampling rate : 48.0 kHz
Frame rate : 46.875 FPS (1024 SPF)
Compression mode : Lossy
Stream size : 91.2 MiB (2%)
Default : Yes
Alternate group : 1

 

 

 

Watch WWE 24 S01E29 Drew McIntyre Free Online

 

 

 

 

Watch online

 

 

 

 

 

Server 1

 

 

 

 

Watch WWE

 

 

Watch WWE

 

Server-2

 

 

 

Watch WWE

 

 

 

 

Server-3

 

 

 

Watch WWE

 

 

 

 

Uploaded By Site DX-TV.com

 

 

 

 

Download Free Links with normal and high Speed [ more 14 hosts ]  

 

 

 

http://shrt10.com/LkBSy6Sg
http://shrt10.com/FRzlKyw
http://shrt10.com/5M0Emj
http://shrt10.com/ks6LHn4
http://shrt10.com/8qz3YElg
http://shrt10.com/tlT4Y7
http://shrt10.com/2qoE1l
http://shrt10.com/QySbMiEH5
http://shrt10.com/vrBtY9

 

 

 

 

Download Links with premium High Speed   

 

 

 

nitroflare.com

 

 

 

rapidgator.net

 

 

 

uploaded.net

 

 

 

uploadgig.com

 

 

 

 

 

dx-tv.com

 

urlfree.net

Leave a Reply

Your email address will not be published. Required fields are marked *

This site uses Akismet to reduce spam. Learn how your comment data is processed.