Watch WWE 24 S01E22 Kofi Kingston The Year of Return

 

Free Watch WWE 24 S01E22 Kofi Kingston The Year of Return 720p Hi WEB HEEL DX-TV Full Show online

 

 

 

 

 

 

 

 

dx-tv.com

 

 

 

shrt10.com

 

 

 

 

 

 

 

 

 

 

Watch WWE 24 S01E22 Kofi Kingston The Year of Return

 

 

 

 

 

 

Shrt10.com

now we have new very high rate

we are paying with up to $25/1000 visits.​

you can start now

Minimum payment $5

  • you can earn up to 25 $ / 1000 unique views.

  • Payout via PayPal, Webmoney, BitCoins.

  • Real time stats, updated every 15 minute

  • You earn for all countries traffic

  • Payments max weekly 

  • Advanced statistics

 

 

 

 

 

 

 

 

Watch WWE 24 S01E22 Kofi Kingston The Year of Return

 

 

 

 

 

Complete name : WWE.24.S01E22.Kofi.Kingston.The.Year.of.Return.720p.Hi.WEB.h264-HEEL.mp4
Format : MPEG-4
Format profile : Base Media
Codec ID : isom (isom/iso2/avc1/mp41)
File size : 1.63 GiB
Duration : 1 h 6 min
Overall bit rate : 3 536 kb/s
Writing application : Lavf58.30.100

Video
ID : 1
Format : AVC
Format/Info : Advanced Video Codec
Codec ID : avc1
Codec ID/Info : Advanced Video Coding
Duration : 1 h 6 min
Bit rate : 3 372 kb/s
Width : 1 280 pixels
Height : 720 pixels
Display aspect ratio : 16:9
Frame rate mode : Constant
Frame rate : 30.000 FPS
Color space : YUV
Chroma subsampling : 4:2:0
Bit depth : 8 bits
Scan type : Progressive
Bits/(Pixel*Frame) : 0.122
Stream size : 1.54 GiB (94%)

Audio
ID : 2
Format : AAC LC
Format/Info : Advanced Audio Codec Low Complexity
Codec ID : mp4a-40-2
Duration : 1 h 6 min
Bit rate mode : Constant
Bit rate : 192 kb/s
Channel(s) : 2 channels
Channel layout : L R
Sampling rate : 48.0 kHz
Frame rate : 46.875 FPS (1024 SPF)
Compression mode : Lossy
Stream size : 91.7 MiB (5%)
Default : Yes
Alternate group : 1

 

 

 

 

 

 

Watch online

 

 

Waiting finish converting video

 

 

Server 1

 

 

 

 

 

 

 

 

 

 

 

 

 

 

 

Server 2

 

 

 

 

 

 

 

 

 

 

 

 

 

 

Uploaded By Site DX-TV.com

 

 

 

Downloading Links

 

 

 

 

 

 

bitster.cz

 

 

 

 

 

 

nitroflare.com

 

 

 

 

 

 

 

rapidgator.net

 

 

 

 

 

 

 

uploaded.net

 

 

 

 

 

 

 

 

Leave a Reply

Your email address will not be published. Required fields are marked *