Watch WWE 205 Live 2020 12 04 Free Online DX-TV

WWE 205-Live

Watch WWE 205 Live 2020 12 04 1080p HEEL DX-TV

Watch WWE 205 Live 2020 12 04

 

 Watch WWE 205 Live 2020 12 04

 

[su_expand more_text=”Show More Info” less_text=”Close all Info” height=”40″ text_color=”#000000″ link_color=”#e25f8b” link_style=”button” more_icon=”icon: arrow-down” less_icon=”icon: arrow-up”]
Complete name :  WWE.205.Live.2020.12.04.1080p.WEB.h264-HEEL.mp4
Format : MPEG-4
Format profile : Base Media
Codec ID : isom
File size : 1.53 GiB
Duration : 27 min 37 s
Overall bit rate mode : Variable
Overall bit rate : 7 913 kb/s
Writing application : Lavf58.32.104

WWE 205 Live 2020 12 04

Video
ID : 1
Format : AVC
Duration : 27 min 37 s
Bit rate : 7 808 kb/s
Width : 1 920 pixels
Height : 1 080 pixels
Display aspect ratio : 16:9
Frame rate mode : Constant
Frame rate : 30.000 FPS
Color space : YUV
Chroma sampling : 4:2:0
Bit depth : 8 bits
Scan type : Progressive
Bits/(Pixel*Frame) : 0.126
Stream size : 1.49 GiB (97%)
Codec configuration box : av

WWE 205 Live 2020 12 

Audio
ID : 2
Format : AAC LC
Format/Info : Advanced Audio
Codec ID : mp4a-40-2
Duration : 27 min 37 s
Bit rate mode : Variable
Bit rate : 192 kb/s
Maximum bit rate : 415 kb/s
Channel(s) : 2 channels
Channel layout : L R
Sampling rate : 48.0 kHz
Frame rate : 46.875 FPS
Compression mode : Lossy
Stream size : 38.1 MiB
Default : Yes
Alternate group : 1

watch WWE 205 Live  

 

[/su_expand]

 

 

Watch online

 

Server 1

 

 

 

 

WWE 205 Live 2020 12 04

 

 

 

 

Server-2

 

 

 

 

watch now

 

 

 

 

Uploaded By Site DX-TV.com

 

Download Links with premium High Speed   

 

 

 

 

dropapk.to

 

 

 

nitroflare.com

 

 

 

rapidgator.net

 

 

 

uploaded.net

 

 

 

uploadgig.com

 

 

https://dx-tv.com/wwe-network-specials-sting-the-lost-tape-1080p/

You May Also Like

Leave a Reply

Your email address will not be published. Required fields are marked *

This site uses Akismet to reduce spam. Learn how your comment data is processed.