Watch WWE 205 Live 2020 10 09 1080p

WWE 205 Live 2020 10 09 1080p DX-TV

 

Watch WWE 205 Live

 

 Watch WWE 205 Live

 

Watch WWE 205 Live 2020 10 09 1080p

 

Complete name : WWE.205.Live.2020.10.09.1080p.WEB.h264-HEEL.mp4
Format : MPEG-4
Format profile : Base Media
Codec ID : isom
File size : 1.30 GiB
Duration : 31 min 48 s
Overall bit rate mode : Variable
Overall bit rate : 5 830 kb/s
Law rating : N/A
Writing application : Lavf58.32.104

Watch WWE 205 Live

Video
ID : 1
Format : AVC
Duration : 31 min 48 s
Bit rate : 5 695 kb/s
Width : 1 920 pixels
Height : 1 080 pixels
Display aspect ratio : 16:9
Frame rate mode : Variable
Frame rate : 30.000 FPS
Color space : YUV
Chroma subsampling : 4:2:0
Bit depth : 8 bits
Scan type : Progressive
Bits/(Pixel*Frame) : 0.092
Stream size : 1.26 GiB (98%)
Codec configuration box : avcC

Watch WWE 205 Live

Audio
ID : 2
Format : AAC LC
Format/Info : Advanced Audio
Codec ID : mp4a-40-2
Duration : 31 min 48 s
Bit rate mode : Variable
Bit rate : 125 kb/s
Maximum bit rate : 136 kb/s
Channel(s) : 2 channels
Channel layout : L R
Sampling rate : 48.0 kHz
Frame rate : 46.875 FPS (1024 SPF)
Compression mode : Lossy
Stream size : 28.5 MiB (2%)
Default : Yes
Alternate group : 1

Text #1
ID : 1-CC1
Format : EIA-608
Muxing mode : SCTE 128 / DTVCC Transport
Muxing mode, more info : Muxed in Video #1
Duration : 31 min 48 s
Bit rate mode : Constant
Stream size : 0.00 Byte (0%)
CaptionServiceName : CC1

Watch WWE 205 Live

Text #2
ID : 1-CC3
Format : EIA-608
Muxing mode : SCTE 128 / DTVCC Transport
Muxing mode, more info : Muxed in Video #1
Duration : 31 min 48 s
Bit rate mode : Constant
Stream size : 0.00 Byte (0%)
CaptionServiceName : CC3

Text #3
ID : 1-1
Format : EIA-708
Muxing mode : SCTE 128 / DTVCC Transport
Muxing mode, more info : Muxed in Video #1
Duration : 31 min 48 s
Bit rate mode : Constant
Stream size : 0.00 Byte (0%)

Watch WWE 205 Live

Text #4
ID : 1-2
Format : EIA-708
Muxing mode : SCTE 128 / DTVCC Transport
Muxing mode, more info : Muxed in Video #1
Duration : 31 min 48 s
Bit rate mode : Constant
Stream size : 0.00 Byte (0%)

Text #5
ID : 1-3
Format : EIA-708
Muxing mode : SCTE 128 / DTVCC Transport
Muxing mode, more info : Muxed in Video #1
Duration : 31 min 48 s
Bit rate mode : Constant
Stream size : 0.00 Byte (0%)

Watch WWE 205 Live

Text #6
ID : 1-4
Format : EIA-708
Muxing mode : SCTE 128 / DTVCC Transport
Muxing mode, more info : Muxed in Video #1
Duration : 31 min 48 s
Bit rate mode : Constant
Stream size : 0.00 Byte (0%)

Text #7
ID : 1-5
Format : EIA-708
Muxing mode : SCTE 128 / DTVCC Transport
Muxing mode, more info : Muxed in Video #1
Duration : 31 min 48 s
Bit rate mode : Constant
Stream size : 0.00 Byte (0%)

Watch WWE 205 Live

Text #8
ID : 1-6
Format : EIA-708
Muxing mode : SCTE 128 / DTVCC Transport
Muxing mode, more info : Muxed in Video #1
Duration : 31 min 48 s
Bit rate mode : Constant
Stream size : 0.00 Byte (0%)

 

 

 

Watch WWE 205 Live 2020 10 09 1080p

 

 

 

 

Watch online

 

 

 

 

 

Server 1

 

 

 

 

watch now

 

 

 

 

Server-2

 

 

 

watch now

 

 

 

 

Server-3

 

 

 

watch now

 

 

 

 

Uploaded By Site DX-TV.com

 

 

 

 

Download Free Links with normal and high Speed [ more 14 hosts ]  

 

 

 

 

http://shrt10.com/MlgdO8
http://shrt10.com/YDlU5H5L6
http://shrt10.com/zY3Gtgc
http://shrt10.com/DHZ0VLRV
http://shrt10.com/KXREYBQA
http://shrt10.com/ykDpGfmJ
http://shrt10.com/UoXun85hJ
http://shrt10.com/CnZVGqU
http://shrt10.com/fcnqNa
http://shrt10.com/n8E4fNIS
http://shrt10.com/Or9qivlpH
http://shrt10.com/VIrAi
http://shrt10.com/LbNXwW

 

 

 

Download Links with premium High Speed   

 

 

 

nitroflare.com

 

 

 

rapidgator.net

 

 

 

uploaded.net

 

 

 

uploadgig.com

 

 

 

 

 

dx-tv.com

 

urlfree.net

Leave a Reply

Your email address will not be published. Required fields are marked *

This site uses Akismet to reduce spam. Learn how your comment data is processed.