Watch WWE 205 Live 2020 01 31 720p

Watch WWE 205 Live 2020 01 31 720p DX-TV

 

 

WWE 205

 

 

 

 

dx-tv.com

 

 

 

 

Watch WWE 205 Live 2020 01 31 720p

 

 

 

 

 

Complete name : WWE.205.Live.2020.01.31.720p.WEB.h264-HEEL.mp4
Format : MPEG-4
Format profile : Base Media
Codec ID : isom
File size : 1.55 GiB
Duration : 46 min 24 s
Overall bit rate mode : Variable
Overall bit rate : 4 771 kb/s
Writing application : Lavf58.32.104

Video
ID : 1
Format : AVC
Duration : 46 min 24 s
Bit rate mode : Variable
Bit rate : 4 637 kb/s
Maximum bit rate : 4 809 kb/s
Width : 1 280 pixels
Height : 720 pixels
Display aspect ratio : 16:9
Frame rate mode : Variable
Frame rate : 30.000 FPS
Minimum frame rate : 29.412 FPS
Maximum frame rate : 30.303 FPS
Standard : NTSC
Color space : YUV
Chroma subsampling : 4:2:0
Bit depth : 8 bits
Scan type : Progressive
Bits/(Pixel*Frame) : 0.168
Stream size : 1.50 GiB (97%)
Color range : Limited
Color primaries : BT.709
Transfer characteristics : BT.709
Matrix coefficients : BT.709
Codec configuration box : avcC

Audio
ID : 2
Format : AAC LC
Codec ID : mp4a-40-2
Duration : 46 min 24 s
Bit rate mode : Variable
Bit rate : 125 kb/s
Maximum bit rate : 141 kb/s
Channel(s) : 2 channels
Channel layout : L R
Sampling rate : 48.0 kHz
Frame rate : 46.875 FPS (1024 SPF)
Compression mode : Lossy
Stream size : 41.6 MiB (3%)
Default : Yes
Alternate group : 1

Text #1
ID : 1-CC1
Format : EIA-608
Duration : 46 min 24 s
Bit rate mode : Constant
Stream size : 0.00 Byte (0%)
CaptionServiceName : CC1

Text #2
ID : 1-T1
Format : EIA-608
Duration : 46 min 24 s
Bit rate mode : Constant
Stream size : 0.00 Byte (0%)
CaptionServiceName : T1

Text #3
ID : 1-CC3
Format : EIA-608
Duration : 46 min 24 s
Bit rate mode : Constant
Stream size : 0.00 Byte (0%)
CaptionServiceName : CC3

Text #4
ID : 1-1
Format : EIA-708
Duration : 46 min 24 s
Bit rate mode : Constant
Stream size : 0.00 Byte (0%)

 

 

Watch online

 

 

Server 1

 

 

 

 

 

 

 

 

 

 

 

Server 2

 

 

 

 

 

 

 

 

 

 

Server–3

 

 

 

 

 

 

Watch WWE 205 Live 2020 01 31 720p

 

 

 

Uploaded By Site DX-TV.com

 

 

 

 

 

1fichier.com 

 

 

DDL.to

 

 

dl.free.fr

 

 

earn4files.com

 

 

filerio.in

 

 

rockfile.co

 

 

 

Download with premium account Links 

 

 

nitroflare.com

 

 

rapidgator.net

 

Uploaded.net