Free Watch WWE 205 Live 2019 07 16 720p WEB HEE DX-TV Full Show online

 

 

 

 

 

 

 

 

dx-tv.com

 

 

 

shrt10.com

 

 

 

 

WWE 205 Live 2019 07 16 720p

 

 

 

 

WWE 205 Live 2019 07 16 720p

 

 

 

 

 

 

Complete name : WWE.205.Live.2019.07.16.720p.WEB.h264-HEEL.mp4
Format : MPEG-4
Format profile : Base Media
Codec ID : isom (isom/iso2/avc1/mp41)
File size : 1.45 GiB
Duration : 45 min 57 s
Overall bit rate mode : Constant
Overall bit rate : 4 503 kb/s
Writing application : Lavf58.27.103

Video
ID : 1
Format : AVC
Format/Info : Advanced Video Codec
Format settings, Reference : 4 frames
Codec ID : avc1
Codec ID/Info : Advanced Video Coding
Duration : 45 min 57 s
Duration_FirstFrame : 7 ms
Bit rate mode : Constant
Bit rate : 4 372 kb/s
Width : 1 280 pixels
Height : 720 pixels
Display aspect ratio : 16:9
Frame rate mode : Constant
Frame rate : 29.970 (30000/1001) FPS
Color space : YUV
Chroma subsampling : 4:2:0
Bit depth : 8 bits
Scan type : Progressive
Bits/(Pixel*Frame) : 0.158
Stream size : 1.40 GiB (97%)
Codec configuration box : avcC

Audio
ID : 2
Format : AAC LC
Format/Info : Advanced Audio Codec Low Complexity
Codec ID : mp4a-40-2
Duration : 45 min 57 s
Bit rate mode : Constant
Bit rate : 125 kb/s
Channel(s) : 2 channels
Channel layout : L R
Sampling rate : 48.0 kHz
Frame rate : 46.875 FPS (1024 SPF)
Compression mode : Lossy
Stream size : 41.2 MiB (3%)
Language : English

 

 

 

 

 

 

 

 

 

 

Watch online

 

 

Waiting finish converting video

 

 

Server 1

 

 

 

 

 

 

 

 

 

 

 

 

 

 

 

 

 

 

 

Server 2

 

 

 

 

 

 

 

 

 

 

 

 

 

 

 

Uploaded By Site DX-TV.com

 

 

 

open rar file to see this password

 

 

 

 

The password : DX-TV.com

 

 

 

 

 

https://shrt10.com/0VhO

 

 

 
https://shrt10.com/3a8XOW
 

 

 
https://shrt10.com/o5aAyETP