Watch WWE 205 Live 2019 04 30 WEB HEEL full show free mp4

Watch WWE 205 Live 2019 04 30 WEB HEEL full show free mp4

 

 

 

 


 

 

dx-tv.com

 

 

 

 

 
Complete name : WWE.205.Live.2019.04.30.WEB.h264-HEEL.mp4
Format : MPEG-4
Format profile : Base Media
Codec ID : isom (isom/iso2/avc1/mp41)
File size : 579 MiB
Duration : 44 min 54 s
Overall bit rate mode : Variable
Overall bit rate : 1 804 kb/s
Writing application : Lavf58.26.101

Video
ID : 1
Format : AVC
Format/Info : Advanced Video Codec
Format settings, Reference : 4 frames
Codec ID : avc1
Codec ID/Info : Advanced Video Coding
Duration : 44 min 54 s
Duration_FirstFrame : 5 ms
Bit rate mode : Constant
Bit rate : 1 704 kb/s
Width : 896 pixels
Height : 504 pixels
Display aspect ratio : 16:9
Frame rate mode : Constant
Frame rate : 29.970 (30000/1001) FPS
Color space : YUV
Chroma subsampling : 4:2:0
Bit depth : 8 bits
Scan type : Progressive
Bits/(Pixel*Frame) : 0.126
Stream size : 547 MiB (94%)
Codec configuration box : avcC

Audio
ID : 2
Format : AAC LC
Format/Info : Advanced Audio Codec Low Complexity
Codec ID : mp4a-40-2
Duration : 44 min 54 s
Bit rate mode : Variable
Bit rate : 93.5 kb/s
Maximum bit rate : 99.8 kb/s
Channel(s) : 2 channels
Channel layout : L R
Sampling rate : 48.0 kHz
Frame rate : 46.875 FPS (1024 SPF)
Compression mode : Lossy
Stream size : 30.0 MiB (5%)
Language : English
Default : Yes
Alternate group : 1

 

 

 

 

 


 

 

Watch WWE 205 Live 2019 04 30 WEB HEEL full show free mp4

 

 

 

 

Watch online

 

 

Waiting finish converting video

 

 

Server 1

 

 

 

 

 


 

 


 


 

 

Uploaded By Site DX-TV.com

 

 

 

open rar file to see this password

 

 

 

 

The password : DX-TV.com

 

 

 

 

Uploaded.net + rapidgator.net + DDL.to + katfile.com

 

 

 

 


 

 
https://shrt10.com/kciQz
 

 

 
https://shrt10.com/hk6jr
 

 

 
https://shrt10.com/4qxStH0

 

 

https://shrt10.com/HXYfxki

 

 

Watch WWE 205 Live 2019 04 30 WEB HEEL full show free mp4

Leave a Reply

Your email address will not be published. Required fields are marked *

WhatsApp chat
%d bloggers like this: