Skip to content
Home Watch WWE 205 Live 2019 04 23 WEB HEEL full show free mp4

Watch WWE 205 Live 2019 04 23 WEB HEEL full show free mp4

    Watch WWE 205 Live 2019 04 23 WEB HEEL full show free mp4

     

     

     

     


     

     

     

    dx-tv.com

     

     

     

     

     

    Complete name : WWE.205.Live.2019.04.23.WEB.h264-HEEL.mp4
    Format : MPEG-4
    Format profile : Base Media
    Codec ID : isom
    File size : 617 MiB
    Duration : 47mn 48s
    Overall bit rate : 1 804 Kbps
    Writing application : Lavf58.26.101

    Video
    ID : 1
    Format : AVC
    Format/Info : Advanced Video Codec
    Format settings, ReFrames : 4 frames
    Format settings, GOP : M=1, N=32
    Codec ID : avc1
    Codec ID/Info : Advanced Video Coding
    Duration : 47mn 48s
    Bit rate mode : Constant
    Bit rate : 1 704 Kbps
    Width : 896 pixels
    Height : 504 pixels
    Display aspect ratio : 16:9
    Frame rate mode : Variable
    Frame rate : 29.970 fps
    Minimum frame rate : 19.092 fps
    Maximum frame rate : 29.970 fps
    Color space : YUV
    Chroma subsampling : 4:2:0
    Bit depth : 8 bits
    Scan type : Progressive
    Bits/(Pixel*Frame) : 0.126
    Stream size : 583 MiB (94%)

    Audio
    ID : 2
    Format : AAC
    Format/Info : Advanced Audio Codec
    Format profile : LC
    Codec ID : 40
    Duration : 47mn 48s
    Bit rate mode : Variable
    Bit rate : 93.5 Kbps
    Maximum bit rate : 97.9 Kbps
    Channel(s) : 2 channels
    Channel positions : Front: L R
    Sampling rate : 48.0 KHz
    Compression mode : Lossy
    Stream size : 32.0 MiB (5%)
     

     

     

     


     

     

     

    Watch WWE 205 Live 2019 04 23 WEB HEEL full show free mp4

     

     

     

     

    Watch online

     

     

    Waiting finish converting video

     

     

    Server 1

     

     

     

     

     

     

     

     

     


     

     

     

     

    Server 2

     

     

     

     

     


     

     

     

     


     

     

     

    Uploaded By Site DX-TV.com

     

     

     

    open rar file to see this password

     

     

     

     

    The password : DX-TV.com

     

     

     

     

    Uploaded.net + rapidgator.net

     

     

     

     


     

     

     

    https://shrt10.com/MRhYTKe

     

     

     

     
    https://shrt10.com/TSGdEV2M
     

     

    Watch WWE 205 Live 2019 04 23 WEB HEEL full show free mp4

    Tags: