Watch WWE 205 Live 2018 10 17 WEB HEEL

Watch WWE 205 Live 2018 10 17 WEB HEEL

 

 

 

 


 

 

 

dx-tv.com

 

 

 

 

 

 

 
Complete name : WWE.205.Live.2018.10.17.WEB.h264-HEEL.mp4
Format : MPEG-4
Format profile : Base Media
File size : 558 MiB
Duration : 43 min 16 s
Overall bit rate mode : Constant
Overall bit rate : 1 804 kb/s
Writing application : Lavf58.2.103

Video
ID : 1
Format : AVC
Format/Info : Advanced Video Codec
Codec ID/Info : Advanced Video Coding
Duration : 43 min 16 s
Duration_FirstFrame : 21 ms
Bit rate mode : Constant
Bit rate : 1 704 kb/s
Width : 896 pixels
Height : 504 pixels
Display aspect ratio : 16:9
Frame rate mode : Constant
Frame rate : 29.970
Color space : YUV
Chroma subsampling : 4:2:0
Bit depth : 8 bits
Scan type : Progressive
Bits/(Pixel*Frame) : 0.126
Stream size : 527 MiB (94%)

Audio
ID : 2
Format : AAC
Format/Info : Advanced Audio Codec
Format profile : LC
Codec ID : mp4a-40-2
Duration : 43 min 15 s
Bit rate mode : Constant
Bit rate : 93.5 kb/s
Channel(s) : 2 channels
Channel positions : Front: L R
Sampling rate : 48.0 kHz
Frame rate : 46.875 FPS (1024 SPF)
Compression mode : Lossy
Stream size : 28.9 MiB (5%)
Language : English
 

 

 

 

Watch WWE 205 Live 2018 10 17 WEB HEEL

 

 

 

 

Watch online

 

 

Waiting finish converting video

 

 

Server 1

 

 

 

 

 

 

 

 

 

 

 

 

 

 

 

Server 2

 

 

 

 

 

 


 

 

 

 

 

Uploaded By Site DX-TV.com

 

 

 

open rar file to see this password

 

 

 

 

The password : DX-TV.com

 

 

 

 

Uploaded.net + rapidgator.net

 

 

 

 

http://shrt10.com/6nSwFIL

 

 

 

 
http://shrt10.com/OoMSjBu
 

 

 

 

 

Watch WWE 205 Live 2018 10 17 WEB HEEL