Watch WWE 205 Live 2018 10 10 720p WEB HEEL mp4

Watch WWE 205 Live 2018 10 10 720p WEB HEEL mp4

 

 

 

 


 

 

 

dx-tv.com

 

 

 

 

 

Complete name : WWE.205.Live.2018.10.10.720p.WEB.h264-HEEL.mp4
Format : MPEG-4
Format profile : Base Media
File size : 1.43 GiB
Duration : 45 min 26 s
Overall bit rate mode : Variable
Overall bit rate : 4 504 kb/s
Writing application : Lavf58.2.103

Video
ID : 1
Format : AVC
Format/Info : Advanced Video Codec
Codec ID/Info : Advanced Video Coding
Duration : 45 min 26 s
Duration_FirstFrame : 14 ms
Bit rate mode : Constant
Bit rate : 4 372 kb/s
Width : 1 280 pixels
Height : 720 pixels
Display aspect ratio : 16:9
Frame rate mode : Constant
Frame rate : 29.970
Color space : YUV
Chroma subsampling : 4:2:0
Bit depth : 8 bits
Scan type : Progressive
Bits/(Pixel*Frame) : 0.158
Stream size : 1.39 GiB (97%)

Audio
ID : 2
Format : AAC
Format/Info : Advanced Audio Codec
Format profile : LC
Codec ID : mp4a-40-2
Duration : 45 min 26 s
Bit rate mode : Variable
Bit rate : 125 kb/s
Maximum bit rate : 127 kb/s
Channel(s) : 2 channels
Channel positions : Front: L R
Sampling rate : 48.0 kHz
Frame rate : 46.875 FPS (1024 SPF)
Compression mode : Lossy
Stream size : 40.8 MiB (3%)
Language : English
 

 

 

 

Watch WWE 205 Live 2018 10 10 720p WEB HEEL mp4

 

 

 

 

Watch online

 

 

Waiting finish converting video

 

 

Server 1

 

 

 

 

 

 

 

 

 

 

 

 

 

 

 

Server 2

 

 

 

 

 

 

 


 

 

 

 

 

 

Uploaded By Site DX-TV.com

 

 

 

open rar file to see this password

 

 

 

 

The password : DX-TV.com

 

 

 

Uploaded.net + rapidgator.net

 

 

 

 

 

http://shrt10.com/72tG3G

 

 

 

 
http://shrt10.com/5yLabr7S
 

 

 

 

 

Watch WWE 205 Live 2018 10 10 720p WEB HEEL mp4