Watch WWE 205 Live 2018 09 11 WWE Network HDTV Star /720p

Watch WWE 205 Live 2018 09 11 WWE Network HDTV Star /720p

 

 

 

 


 

 

 

dx-tv.com

 

 

 

 

 

Complete name : WWE.205.Live.2018.09.11.WWE.Network.HDTV.x264-Star.mp4
Format : MPEG-4
File size : 519 MiB
Duration : 49 min 32 s
Overall bit rate mode : Variable
Overall bit rate : 1 464 kb/s
Encoded date : UTC 2018-09-12 04:42:37
Tagged date : UTC 2018-09-12 04:42:37

Video
ID : 1
Format : AVC
Format/Info : Advanced Video Codec
Codec ID/Info : Advanced Video Coding
Duration : 49 min 32 s
Bit rate : 1 300 kb/s
Width : 712 pixels
Height : 400 pixels
Display aspect ratio : 16:9
Frame rate mode : Constant
Frame rate : 29.970
Color space : YUV
Chroma subsampling : 4:2:0
Bit depth : 8 bits
Scan type : Progressive
Bits/(Pixel*Frame) : 0.152
Stream size : 459 MiB (89%)
Encoded date : UTC 2018-09-12 04:42:37
Tagged date : UTC 2018-09-12 04:42:37
Color range : Limited
Color primaries : BT.709
Transfer characteristics : BT.709
Matrix coefficients : BT.709

Audio
ID : 2
Format : AAC
Format/Info : Advanced Audio Codec
Format profile : LC
Codec ID : mp4a-40-2
Duration : 49 min 32 s
Bit rate mode : Variable
Bit rate : 160 kb/s
Channel(s) : 2 channels
Channel positions : Front: L R
Sampling rate : 48.0 kHz
Frame rate : 46.875 FPS
Compression mode : Lossy
Stream size : 56.8 MiB (11%)
Title : Stereo / Stereo
Default : Yes
Alternate group : 1
Encoded date : UTC 2018-09-12 04:42:37
Tagged date : UTC 2018-09-12 04:42:37

 

 

 

 

 
WWE.205.Live.2018.09.11.720p.WWE.Network.HDTV.x264-Star
Release Info:
Show Name: WWE 205 Live
Genre: Wrestling
Release Date: 2018-09-12(UK)
Air Date: 2018-09-11(US)
Source : HDTV
Container: MP4
Video: x264, 4688Kbps, 29,970fps, 1280×720, 16:9
Audio: AAC, 192Kbps, 48KHz, 2ch
Size: 1.62 GB
Runtime: 49mn 32s
 

 

 

 

 

 

Watch WWE 205 Live 2018 09 11 WWE Network HDTV Star /720p

 

 

 

 

Watch online

 

 

Waiting finish converting video

 

 

Server 1

 

 

 

 

 

 

 

 

 

 

 

 

 

 

 

 

 

 

Server 2

 

 

 

 

 

 

 


 

 

 

 

 

 

Uploaded By Site DX-TV.com

 

 

 

open rar file to see this password

 

 

 

 

The password : DX-TV.com

 

 

 

 

Uploaded.net + rapidgator.net

 

 

 

 

 

 

http://shrt10.com/FpaMs
 

 

 

http://shrt10.com/LAJDfG
 

 

 

http://shrt10.com/uZNkv

 

 

 
http://shrt10.com/9qeDKKY
 

 

 

Watch WWE 205 Live 2018 09 11 WWE Network HDTV Star /720p

Tags: , , , , , , , , ,

Leave a Reply

This site uses Akismet to reduce spam. Learn how your comment data is processed.

Support HVIPS

Please Disable Ad-Block To View This site. just help us to continue this work