Watch WWE 205 Live 2018 08 21 WEB HEEL /720p

Watch WWE 205 Live 2018 08 21 WEB HEEL /720p

 

 

 

 


 

 

 

dx-tv.com

 

 

 

 

Complete name : WWE.205.Live.2018.08.21.WEB.h264-HEEL.mp4
Format : MPEG-4
Format profile : Base Media
File size : 639 MiB
Duration : 49 min 27 s
Overall bit rate mode : Constant
Overall bit rate : 1 806 kb/s
Writing application : Lavf58.17.101

Video
ID : 1
Format : AVC
Format/Info : Advanced Video Codec
Codec ID/Info : Advanced Video Coding
Duration : 49 min 27 s
Duration_FirstFrame : 16 ms
Bit rate mode : Constant
Bit rate : 1 704 kb/s
Width : 896 pixels
Height : 504 pixels
Display aspect ratio : 16:9
Frame rate mode : Constant
Color space : YUV
Chroma subsampling : 4:2:0
Bit depth : 8 bits
Scan type : Progressive
Bits/(Pixel*Frame) : 0.126
Stream size : 603 MiB (94%)

Audio
ID : 2
Format : AAC
Format/Info : Advanced Audio Codec
Format profile : LC
Codec ID : mp4a-40-2
Duration : 49 min 27 s
Bit rate mode : Constant
Bit rate : 93.5 kb/s
Channel(s) : 2 channels
Channel positions : Front: L R
Sampling rate : 48.0 kHz
Frame rate : 46.875 FPS (1024 SPF)
Compression mode : Lossy
Stream size : 33.1 MiB (5%)
Language : English
Default : Yes
Alternate group : 1
 

 

 

Title: WWE.205.Live.2018.08.21.720p.WEB.h264-HEEL
Released: 2018.08.21
Source: WWE Network
Resolution: 1280 x 720 @ 29.970 FPS
Video: H.264 @ 4500 kbps
Audio: AAC @ 128 kbps
Size: 1.55 GB
Runtime: 49mn 26sec
 

 

 

 

Watch WWE 205 Live 2018 08 21 WEB HEEL /720p

 

 

 

 

Watch online

 

 

Waiting finish converting video

 

 

Server 1

 

 

 

 

 

 

 

 

 

 

 

 

 

 

 

 

 

 

 

 

Server 2

 

 

 

 

 

 


 

 

 

 

 

 

 

Uploaded By Site DX-TV.com

 

 

 

open rar file to see this password

 

 

 

 

The password : DX-TV.com

 

 

 

 

Uploaded.net + rapidgator.net

 

 

 

 

 

http://shrt10.com/64AP
 

 

 

 

http://shrt10.com/q2vo5sFd
 

 

 

http://shrt10.com/91fPwtv

 

 

 
http://shrt10.com/J8orzV
 

 

 

 

 

 

Watch WWE 205 Live 2018 08 21 WEB HEEL /720p