Watch WWE 205 Live 2018 07 31 WEB HEEL /720p

Watch WWE 205 Live 2018 07 31 WEB HEEL /720p

 

 

 

 


 

 

 

dx-tv.com

 

 

 

 

 

Complete name : WWE.205.Live.2018.07.31.WEB.h264-HEEL.mp4
Format : MPEG-4
Format profile : Base Media
Codec ID : isom
File size : 584 MiB
Duration : 45mn 16s
Overall bit rate : 1 804 Kbps
Writing application : Lavf58.2.103

Video
ID : 1
Format : AVC
Format/Info : Advanced Video Codec
Codec ID : avc1
Codec ID/Info : Advanced Video Coding
Duration : 45mn 16s
Bit rate mode : Constant
Bit rate : 1 704 Kbps
Width : 896 pixels
Height : 504 pixels
Display aspect ratio : 16:9
Frame rate mode : Variable
Frame rate : 29.970 fps
Minimum frame rate : 18.507 fps
Maximum frame rate : 29.970 fps
Color space : YUV
Chroma subsampling : 4:2:0
Bit depth : 8 bits
Scan type : Progressive
Bits/(Pixel*Frame) : 0.126
Stream size : 552 MiB (94%)

Audio
ID : 2
Format : AAC
Format/Info : Advanced Audio Codec
Format profile : LC
Codec ID : 40
Duration : 45mn 16s
Bit rate mode : Variable
Bit rate : 93.5 Kbps
Maximum bit rate : 106 Kbps
Channel(s) : 2 channels
Channel positions : Front: L R
Sampling rate : 48.0 KHz
Compression mode : Lossy
Stream size : 30.3 MiB (5%)
Language : English
 

 

 

 

 

 
Title: WWE.205.Live.2018.07.31.720p.WEB.h264-HEEL
Released: 2018.07.31
Source: WWE Network
Resolution: 1280 x 720 @ 29.970 FPS
Video: H.264 @ 4500 kbps
Audio: AAC @ 128 kbps
Size: 1.42 GB
Runtime: 45mn 15sec
 

 

 

 

 

Watch WWE 205 Live 2018 07 31 WEB HEEL /720p

 

 

 

 

Watch online

 

 

Waiting finish converting video

 

 

Server 1

 

 

 

 

 

 

 

 

 

 

 

 

 

 

 

 

 

 

 

 

Server 2

 

 

 

 

 

 

 

 


 

 

 

 

 

 

 

 

Uploaded By Site DX-TV.com

 

 

 

open rar file to see this password

 

 

 

 

The password : DX-TV.com

 

 

 

 

Uploaded.net + rapidgator.net

 

 

 

 

 

 

http://shrt10.com/G7RV3

 

 

 

http://shrt10.com/gpOQ4

 

 

 

http://shrt10.com/1qNKYjR

 

 

 

 

 

http://shrt10.com/ysDD

 

 

 

 

 

 

 

 

 

 

 

 

Watch WWE 205 Live 2018 07 31 WEB HEEL /720p

Support HVIPS

Please Disable Ad-Block To View This site. just help us to continue this work