Watch WWE 205 Live 13 11 2020 1080p

WWE 205 Live 13 11 2020 1080p DX-TV

WWE 205 Live 13 11 2020

 

 WWE 205 Live 13 11 2020
 

Watch WWE 205 Live 13 11 2020 1080p

 

 

 

 

Complete name : WWE.205.Live.2020.11.13.1080p.WEB.h264-HEEL.mp4
Format : MPEG-4
Format profile : Base Media
Codec ID : isom
File size : 1.59 GiB
Duration : 28 min 35 s
Overall bit rate mode : Variable
Overall bit rate : 7 969 kb/s
Writing application : Lavf58.32.104

WWE 205 Live 13 11 2020

Video
ID : 1
Format : AVC
Duration : 28 min 35 s
Bit rate : 7 808 kb/s
Width : 1 920 pixels
Height : 1 080 pixels
Display aspect ratio : 16:9
Frame rate mode : Constant
Frame rate : 30.000 FPS
Color space : YUV
Chroma subsampling : 4:2:0
Bit depth : 8 bits
Scan type : Progressive
Bits/(Pixel*Frame) : 0.126
Stream size : 1.55 GiB (97%)

WWE 205 Live 13 11 2020

Audio
ID : 2
Format : AAC LC
Format/Info : Advanced
Codec ID : mp4a-40-2
Duration : 28 min 35 s
Bit rate mode : Variable
Bit rate : 192 kb/s
Maximum bit rate : 415 kb/s
Channel(s) : 2 channels
Channel layout : L R
Sampling rate : 48.0 kHz
Frame rate : 46.875 FPS (1024 SPF)
Compression mode : Lossy
Stream size : 39.4 MiB (2%)
Default : Yes
Alternate group : 1

 

After clearing the ring, Nese and Daivari feigned competing against one another.

but Grey reentered the mix and wiped out both of them with a crossbody from the top rope.

Perhaps to the surprise of some, Nese and Daivari maintained their alliance,

brutalizing Stallion with several stinging haymakers and dropping him with a standing suplex.

When they attempted the same maneuver on Grey, however, the 205 Live newcomer countered .

and nearly drove Nese through the canvas with an innovative suplex, though the ensuing pinfall was broken up by Daivari. 

Stallion, who was left with a gash above his eye after Grey spiked him with a unique DDT.

dug down late in the match to miraculously kick out of Nese’s 450 Splash.

WWE 205 Live 13 11 2020

After Nese ran right into a superkick from Grey, however.

The Bollywood Boyz, whom Nese and Daivari essentially bribed with the promise of a future NXT Cruiserweight Title Match.

hit the scene to break up the pinfall and put the boots to Grey.

Grey and Adonis fought back and chucked The Bollywood Boyz out of the ring,

only to immediately be attacked by Ever-Rise! Stallion.

Grey and Adonis worked together to take Ever-Rise out of the equation,

but Daivari used brass knuckles to clobber Adonis before Grey broke up the count.

After exchanging blows with Nese in the corner, Stallion planted his foe with .

a jaw-dropping reverse Spanish Fly to earn the victory and a future championship fight with Escobar!

 

Watch WWE 205 Live 13 11 2020 1080p

 

Watch online

 

 

Server 1

 

 

 

 

 

 

WWE 205 Live 13 11 2020

 

Server-2

 

 

 

 

 

 

 

 

Uploaded By Site DX-TV.com

 

 

 

 

Download Free Links with normal and high Speed [ more 14 hosts ]  

 

 

 

 

http://shrt10.com/atIaz
http://shrt10.com/QE13XjLW
http://shrt10.com/Jh7vvui
http://shrt10.com/hUJWOk
http://shrt10.com/vY0Xhqf
http://shrt10.com/eDXJutm
http://shrt10.com/6JwW5pHvs
http://shrt10.com/Km7bVs5

 

 

 

Download Links with premium High Speed   

 

 

 

 

dropapk.to

 

 

 

nitroflare.com

 

 

 

rapidgator.net

 

 

 

uploaded.net

 

 

 

uploadgig.com

 

 

 

 

 

dx-tv.com

 

urlfree.net

Leave a Reply

Your email address will not be published. Required fields are marked *

This site uses Akismet to reduce spam. Learn how your comment data is processed.