Watch Wrestling WWE Swerve City Podcast E08 DX-TV

Watch Wrestling WWE Swerve City Podcast E08 Pat McAfee 1080p DX-TV

Watch Wrestling WWE Swerve 

 Watch Wrestling WWE

 

Download Links with premium High Speed   

 

 

dropapk.to

http://shrt10.com/Ir4BfgH9

 

 

nitroflare.com

http://shrt10.com/UOKRZJ

 

 

rapidgator.net

http://shrt10.com/W4m8lfkYa

 

 

uploadgig.com

http://shrt10.com/zPLT8

 

Watch online

 

Server 1

 

 

 

 

Watch Wrestling WWE

 

 

 

 

Server-2

 

 

 

 

watch now

 

 

 

 

Uploaded By Site DX-TV.com

 

 

 

[su_expand more_text=”Show More Info” less_text=”Close all Info” height=”50″ text_color=”#000000″ link_color=”#e25f8b” link_style=”button” more_icon=”icon: arrow-down” less_icon=”icon: arrow-up”]
Complete name : WWE Swerve City Podcast E08 Pat McAfee 1080p.mkv
Format : Matroska
Format version : Version 4
File size : 3.21 GiB
Duration : 3 h 49 min
Overall bit rate : 2 000 kb/s

Watch Wrestling WWE

Video
ID : 1
Format : AVC
Duration : 3 h 49 min
Bit rate : 1 904 kb/s
Width : 1 280 pixels
Height : 720 pixels
Display aspect ratio : 16:9
Frame rate mode : Constant
Frame rate : 30.000 FPS
Color space : YUV
Chroma subsampling : 4:2:0
Bit depth : 8 bits
Scan type : Progressive
Bits/(Pixel*Frame) : 0.069
Stream size : 3.06 GiB (95%)
Forced : No

 Wrestling WWE

Audio
ID : 2
Format : AAC LC
Codec ID : A_AAC-2
Duration : 3 h 49 min
Bit rate : 93.6 kb/s
Channel(s) : 2 channels
Channel layout : L R
Sampling rate : 44.1 kHz
Frame rate : 43.066 FPS (1024 SPF)
Compression mode : Lossy
Delay relative to video : -23 ms
Stream size : 154 MiB (5%)
Default : Yes
Forced : No

 

Codec ID : A_AAC-2
Duration : 3 h 49 min
Bit rate : 93.6 kb/s
Channel(s) : 2 channels
Channel layout : L R
Sampling rate : 44.1 kHz
Frame rate : 43.066 FPS (1024 SPF)
Compression mode : Lossy
Delay relative to video : -23 ms
Stream size : 154 MiB (5%)
Default : Yes
Forced : No

[/su_expand]

 

https://dx-tv.com/

You May Also Like

Leave a Reply

Your email address will not be published. Required fields are marked *

This site uses Akismet to reduce spam. Learn how your comment data is processed.