Watch Wrestling WWE SmackDown 2020 10 16 720p Online

Wrestling WWE SmackDown 2020 10 16 720p Online DX-TV

 

Watch Wrestling WWE SmackDown

 

 Watch Wrestling WWE SmackDown

 

Watch Wrestling WWE SmackDown 2020 10 16 720p Online

 

Roman Reigns def. Braun Strowman – Universal Championship Match

Roman Reigns and Braun Strowman closed the SmackDown season premiere with a larger-than-life Universal Title showdown. The Strowman Express was rolling early as the Goliath pounded Reigns over the barricade outside the ring. In shades of his showdown with Jey Uso at WWE Clash of Champions, Reigns drilled Strowman with a low blow while kicking out. Reigns pounced on Strowman and squeezed the life out of The Monster with a vicious guillotine hold to force the tapout.

Watch Wrestling WWE SmackDown

After the match, Jey Uso announced his presence, as the Hell in a Cell matchup between the two looms just over a week away. The Tribal Chief used the opportunity to send a message to his cousin by annhilating the battered Strowman with a punishing Spear and steel chair smashes. In a stunning move, Reigns offered Uso the steel chair to deliver his own strike back. After some hesitation, Uso leapt at Reigns, but the Universal Champion shook off the initial attack and left his WWE Hell in a Cell opponent laid out from a Superman Punch.

Watch Wrestling WWE SmackDown

Complete name : WWE.SmackDown.2020.10.16.720p.WEB.h264-HEEL.mp4
Format : MPEG-4
Format profile : Base Media
Codec ID : isom
File size : 6.25 GiB
Duration : 1 h 27 min
Overall bit rate mode : Variable
Overall bit rate : 10.2 Mb/s

Watch Wrestling WWE SmackDown

Video
ID : 1
Format : AVC
Format/Info : Advanced
Duration : 1 h 27 min
Bit rate mode : Variable
Bit rate : 10.1 Mb/s
Maximum bit rate : 12.0 Mb/s
Width : 1 280 pixels
Height : 720 pixels
Display aspect ratio : 16:9
Frame rate mode : Variable
Frame rate : 59.940 FPS
Color space : YUV
Chroma subsampling : 4:2:0
Bit depth : 8 bits
Scan type : Progressive
Bits/(Pixel*Frame) : 0.183
Stream size : 6.20 GiB (99%)
Color range : Limited
Color primaries : BT.709
Transfer characteristics : BT.709
Matrix coefficients : BT.709
Codec configuration box : avcC

Watch Wrestling WWE SmackDown

Audio
ID : 2
Format : AAC LC SBR
Format/Info : Advanced Audio
Commercial name : HE-AAC
Format settings : Implicit
Codec ID : mp4a-40-2
Duration : 1 h 27 min
Source duration : 1 h 27 min
Bit rate mode : Constant
Bit rate : 62.6 kb/s
Channel(s) : 2 channels
Channel layout : L R
Sampling rate : 48.0 kHz
Frame rate : 23.438 FPS (2048 SPF)
Compression mode : Lossy
Stream size : 39.4 MiB (1%)
Source stream size : 39.4 MiB (1%)
Default : Yes
Alternate group : 1
mdhd_Duration : 5273278

Watch Wrestling WWE SmackDown

Text
ID : 1-CC1
Format : EIA-608
Muxing mode : SCTE 128 / DTVCC Transport
Muxing mode, more info : Muxed in Video #1
Duration : 1 h 27 min
Bit rate mode : Constant
Stream size : 0.00 Byte (0%)
Caption Service Name : CC1

 

 

 

Watch Wrestling WWE SmackDown 2020 10 16 720p Online

 

 

 

 

Watch online

 

 

 

 

 

Server 1

 

 

 

 

watch now

 

 

 

 

Server-2

 

 

 

watch now

 

 

 

 

Server-3

 

 

 

Watch Wrestling WWE SmackDown

 

 

 

 

Uploaded By Site DX-TV.com

 

 

 

Download Links with premium High Speed   

 

 

 

 

dropapk.to

 

 

 

nitroflare.com

 

 

 

rapidgator.net

 

 

 

uploadgig.com

 

 

 

 

 

dx-tv.com

 

urlfree.net

Leave a Reply

Your email address will not be published. Required fields are marked *

This site uses Akismet to reduce spam. Learn how your comment data is processed.