Watch Wrestling WWE Raw 30 11 2020 Free Online DX-TV

Watch Wrestling WWE Raw 30 11 2020 HDTV Star /720p DX-TV

Watch Wrestling WWE Raw

 

 Watch Wrestling WWE Raw

 

[su_expand more_text=”Show More Info” less_text=”Close all Info” height=”30″ text_color=”#000000″ link_color=”#e25f8b” link_style=”button” more_icon=”icon: arrow-down” less_icon=”icon: arrow-up”]

 

Complete name : WWE.Monday.Night.Raw.2020.11.30.HDTV.x264-Star.mp4
Format : MPEG-4
Format profile : Base Media
Codec ID : mp42
File size : 1.34 GiB
Duration : 2 h 10 min
Overall bit rate : 1 470 kb/s

Watch Wrestling WWE Raw

Video
ID : 1
Format : AVC
Duration : 2 h 10 min
Bit rate : 1 300 kb/s
Width : 720 pixels
Height : 480 pixels
Display aspect ratio : 16:9
display aspect rat : 16:9
Frame rate mode : Constant
Frame rate : 29.970 FPS
Standard : NTSC
Color space : YUV
Chroma subsampling : 4:2:0
Bit depth : 8 bits
Scan type : Progressive
Bits/(Pixel*Frame) : 0.126
Stream size : 1.19 GiB (89%)
Color range : Limited
Color primaries : BT.601 NTSC
Transfer characteristics : BT.709
Matrix coefficients : BT.601
Codec configuration box : avc

Wrestling WWE Raw

Audio
ID : 2
Format : AAC LC
Format/Info : Advanced Audio
Codec ID : mp4a-40-2
Duration : 2 h 10 min
Bit rate mode : Constant
Bit rate : 159 kb/s
Channel(s) : 2 channels
Channel layout : L R
Sampling rate : 48.0 kHz
Frame rate : 46.875 FPS
Compression mode : Lossy
Stream size : 149 MiB
Title : Stereo
Default : Yes
Alternate group : 1

 

Wrestling WWE Raw

Complete name : WWE.Monday.Night.Raw.2020.11.30.720p.HDTV.x264-Star.mkv
Format : Matroska
Format version : Version 4
File size : 4.74 GiB
Duration : 2 h 10 min
Overall bit rate : 5 201 kb/s

Video
ID : 1
Format : AVC
Duration : 2 h 10 min
Bit rate : 5 000 kb/s
Width : 1 280 pixels
Height : 720 pixels
Display aspect ratio : 16:9
Frame rate mode : Constant
rate : 29.970 (30000/1001) FPS
Color space : YUV
Chroma subsampling : 4:2:0
Bit depth : 8 bits
Scan type : Progressive
Bits/(Pixel*Frame) : 0.181
Stream size : 4.47 GiB (94%)
Forced : No
Color range : Limited
Color primaries : BT.709
Transfer characteristics : BT.709
Matrix coefficients : BT.709

Wrestling WWE Raw

Audio
ID : 2
Format : AC-3
Info : Audio Coding 3
name : Dolby Digital
Codec ID : A_AC3
Duration : 2 h 10 min
Bit rate mode : Constant
Bit rate : 192 kb/s
Channel(s) : 2 channels
Channel layout : L R
Sampling rate : 48.0 kHz
Frame rate : 31.250 FPS (
Compression mode : Lossy
Delay relative to video : -5 ms
Stream size : 179 MiB (4%)
Title : Stereo
Default : Yes
Forced : No

 

watch Wrestling WWE Raw

 

 

[/su_expand]

 

 

Watch online

 

Server 1

 

 

 

 

Watch Wrestling WWE Raw

 

 

 

 

Server-2

 

 

 

 

Watch Wrestling WWE Raw

 

 

 

 

Uploaded By Site DX-TV.com

 

 

 

 

Download Free Links with normal and high Speed [ more 14 hosts ]  

 

[su_expand more_text=”Show Hosts Info” less_text=”Close all Info” height=”30″ text_color=”#000000″ link_color=”#e25f8b” link_style=”button” more_icon=”icon: arrow-down” less_icon=”icon: arrow-up”]

 

 Wrestling WWE Raw

hexupload.net – clicknupload.co – www.multiup.org

– uptobox.com – anonfiles.com – userscloud.com –

dropapk.to alfafile.net – ddownload.com – rockfile.co

– 1fichier.com – filedown.org – katfile.com – filerio.in

 

 

[/su_expand]

 

400p

http://shrt10.com/JDcN8w3yt
http://shrt10.com/V7JdFzX
http://shrt10.com/DMQyoqx
http://shrt10.com/GRb2E
http://shrt10.com/pke5GCdez
http://shrt10.com/tqJCdhj
http://shrt10.com/EtmFIYP
http://shrt10.com/x0fWTq0

 

 

 

720p

 

http://shrt10.com/I7NcRG
http://shrt10.com/gYJc9gM2G
http://shrt10.com/eKQgZ
http://shrt10.com/vpHxsey
http://shrt10.com/c7QhpOw9
http://shrt10.com/Y5JEO

 

 

 

 

 

 

Download Links with premium High Speed   

 

 

 

 

dropapk.to

http://shrt10.com/xIQfGNqU
http://shrt10.com/ut2wk

 

 

nitroflare.com

http://shrt10.com/6XhvM9WV
http://shrt10.com/xJWYP

 

 

rapidgator.net

http://shrt10.com/xn1ltAo5s
http://shrt10.com/YwCWF

 

 

uploaded.net

http://shrt10.com/nCTjZQ7

http://shrt10.com/0KDKc

 

uploadgig.com

http://shrt10.com/HRTuA
http://shrt10.com/F3kc3gTm

 

free-download-wwe-raw-2019-11-18-720p/

You May Also Like

Leave a Reply

Your email address will not be published. Required fields are marked *

This site uses Akismet to reduce spam. Learn how your comment data is processed.