Watch Wrestling WWE Raw 2020 10 19 Free Online

WWE Raw 2020 10 19 HDTV NWCHD DX-TV

 

Watch Wrestling WWE Raw

 

 Watch Wrestling WWE Raw

Watch Wrestling WWE Raw 2020 10 19 Free Online

 

Will Drew McIntyre and Randy Orton tear each other to shreds ahead of WWE Hell in a Cell?

 

WWE Champion Drew McIntyre has vowed to make Randy Orton’s life hell until they are locked inside Hell in a Cell on Oct. 25.

With just six days left before they step inside the career-altering battleground, what will McIntyre and The Viper subject each other to?

Find out this Monday on Raw at 8/7 C on USA!

Watch Wrestling WWE Raw

Complete name : WWE.Monday.Night.Raw.2020.10.19.HDTV.x264-NWCHD.mp4
Format : MPEG-4
Format profile : Base Media
Codec ID : isom
File size : 1.40 GiB
Duration : 2 h 4 min
Overall bit rate : 1 617 kb/s
Writing application : Lavf58.27.103

Watch Wrestling WWE Raw

Video
ID : 1
Format : AVC
Duration : 2 h 4 min
Bit rate : 1 400 kb/s
Width : 704 pixels
Height : 400 pixels
Display aspect ratio : 16:9
Original aspect rat : 16:9
Frame rate mode : Variable
 rate : 29.970 (30000/1001) FPS 
Color space : YUV
Chroma subsampling : 4:2:0
Bit depth : 8 bits
Scan type : Progressive
Bits/(Pixel*Frame) : 0.166
Stream size : 1.23 GiB (88%)
Color primaries : BT.709
Transfer characteristics : BT.709
Matrix coefficients : BT.709
Codec configuration box : avcC

Watch Wrestling WWE Raw

Audio
ID : 2
Format : AAC LC
Format/Info : Advanced Audio
Codec ID : mp4a-40-2
Duration : 2 h 4 min
Bit rate mode : Constant
Bit rate : 192 kb/s
Channel(s) : 2 channels
Channel layout : L R
Sampling rate : 48.0 kHz
Frame rate : 46.875 FPS
Compression mode : Lossy
Stream size : 170 MiB (12%)
Title : Stereo
Language : English
Default : Yes
Alternate group : 1

 

 

 

Watch Wrestling WWE Raw 2020 10 19 Free Online

 

 

 

 

Watch online

 

 

 

 

 

Server 1

 

 

 

 

Watch Wrestling WWE Raw

 

 

 

 

Server-2

 

 

 

watch now

 

 

 

 

Server-3

 

 

 

watch now

 

 

 

 

Uploaded By Site DX-TV.com

 

 

 

 

Download Free Links with normal and high Speed [ more 14 hosts ]  

 

[su_expand more_text=”Show Hosts Info” less_text=”Close all Info” height=”30″ text_color=”#000000″ link_color=”#e25f8b” link_style=”button” more_icon=”icon: arrow-down” less_icon=”icon: arrow-up”]

 

 Wrestling WWE Raw

hexupload.net – clicknupload.co – www.multiup.org – uptobox.com – anonfiles.com – userscloud.com –

dropapk.to alfafile.net – ddownload.com – rockfile.co – 1fichier.com – filedown.org – katfile.com – filerio.in

 

 

[/su_expand]

 

 

 

http://shrt10.com/D284bnF
http://shrt10.com/1IjStVc
http://shrt10.com/yYRnzCB
http://shrt10.com/gey9eG
http://shrt10.com/cFC5zj35
http://shrt10.com/AQg5a
http://shrt10.com/z3LHMBtXJ
http://shrt10.com/RHUThJU
http://shrt10.com/H1g2b4GP
http://shrt10.com/SmHXhpiuJ
http://shrt10.com/TC8NNJVCg

 

 

 

Download Links with premium High Speed   

 

 

 

 

dropapk.to

 

 

 

nitroflare.com

 

 

 

rapidgator.net

 

 

 

uploaded.net

 

 

 

uploadgig.com

 

 

 

 

 

dx-tv.com

 

urlfree.net

6 thoughts on “Watch Wrestling WWE Raw 2020 10 19 Free Online

  1. How can I contact you in private ? I was wondering if you could rip some matches from WWE Network (1080i), and I could pay you some on paypal (because I want multiple matches), thanks in advance.

    1. why?
      I’m not protected emails
      anyway you can type your email i will contact you now.
      and you can too type here you number what’s up I preferred that ,will contact with you now
      don’t worry this data not public

  2. My number what’s up ? what’s this ?

    I don’t know why it doesn’t work, you should write your mail with space like (for example) : dx-tv @ gmail . com

    1. give me screen what you see ..

      and my email admin site is name my username snaw90 with gmail
      you can trying now send me test email will replaying you now

Leave a Reply

Your email address will not be published. Required fields are marked *

This site uses Akismet to reduce spam. Learn how your comment data is processed.