Watch Wrestling WWE Main Event 26 11 2020 Free Online

Watch WWE Main Event 2020 11 26 Int 1080p DX-TV

Watch Wrestling WWE

 

 Watch Wrestling WWE

 

[su_expand more_text=”Show More Info” less_text=”Close all Info” height=”30″ text_color=”#000000″ link_color=”#e25f8b” link_style=”button” more_icon=”icon: arrow-down” less_icon=”icon: arrow-up”]

 Wrestling WWE

Complete name : WWE.Main.Event.2020.11.26.Int.1080p.WEB.h264-HEEL.mp4
Format : MPEG-4
Format profile : Base Media
Codec ID : isom
File size : 1.09 GiB
Duration : 44 min 16 s
Overall bit rate mode : Variable
Overall bit rate : 3 516 kb/s
Writing application : Lavf58.63

Watch Wrestling WWE

Video
ID : 1
Format : AVC
Duration : 44 min 16 s
Bit rate mode : Variable
Bit rate : 3 445 kb/s
Maximum bit rate : 3 500 kb/s
Width : 1 920 pixels
Height : 1 080 pixels
Display aspect ratio : 16:9
Frame rate mode : Constant
Frame rate : 25.000 FPS
Color space : YUV
Chroma subsampling : 4:2:0
Bit depth : 8 bits
Scan type : Progressive
Bits/(Pixel*Frame) : 0.066
Stream size : 1.07 GiB
Codec configuration box : avc

 Wrestling WWE

Audio
ID : 2
Format : AAC LC
Format/Info : Advanced Audio
Codec ID : mp4a-40-2
Duration : 44 min 16 s
Bit rate mode : Constant
Bit rate : 64.0 kb/s
Channel(s) : 2 channels
Channel layout : L R
Sampling rate : 48.0 kHz
Frame rate : 46.875 FPS
Compression mode : Lossy
Stream size : 20.3 MiB (2%)
Default : Yes
Alternate group : 1

Watch Wrestling WWE

 

[/su_expand]

 

 

Watch online

 

 

Server 1

 

 

 

 

Watch Wrestling WWE

 

 

 

 

Server-2

 

 

 

 

watch now

 

 

 

 

Uploaded By Site DX-TV.com

 

Watch Wrestling WWE

 

 

Download Free Links with normal and high Speed [ more 14 hosts ]  

 

[su_expand more_text=”Show Hosts Info” less_text=”Close all Info” height=”30″ text_color=”#000000″ link_color=”#e25f8b” link_style=”button” more_icon=”icon: arrow-down” less_icon=”icon: arrow-up”]

 

 Wrestling WWE

hexupload.net – clicknupload.co – www.multiup.org

– uptobox.com – anonfiles.com – userscloud.com – 

 

 

[/su_expand]

 

http://shrt10.com/MCvn5kziI
http://shrt10.com/LcWUA
http://shrt10.com/qWwk6tOZV
http://shrt10.com/lMzFInH
http://shrt10.com/H9EdJ
http://shrt10.com/efTtcMRV
http://shrt10.com/M6PD7q
http://shrt10.com/uGqJFcFAQ

 

 

 

 

Watch Wrestling WWE

Download Links with premium High Speed   

 

 

 

 

dropapk.to

 

 

 

nitroflare.com

 

 

 

rapidgator.net

 

 

 

uploaded.net

 

 

 

uploadgig.com

 

 

https://dx-tv.com/wwe-survivor-series-2020-ppv-free-full-show-online-720p/