Watch Wrestling WWE Main Event 2020 12 04 720p DX-TV

Watch Wrestling WWE Main Event 2020 12 04 720p HDTV Star DX-TV

Watch Wrestling WWE Main Event

 

 Watch Wrestling WWE Main Event

 

[su_expand more_text=”Show More Info” less_text=”Close all Info” height=”30″ text_color=”#000000″ link_color=”#e25f8b” link_style=”button” more_icon=”icon: arrow-down” less_icon=”icon: arrow-up”]

 

Complete name : WWE.Main.Evant.2020.12.04.720p.HDTV.x264-Star.mkv
Format : Matroska
Format version : Version 4
File size : 1.63 GiB
Duration : 44 min 53 s
Overall bit rate : 5 185 kb/s

Watch Wrestling WWE Main Event

Video
ID : 1
Format : AVC
Duration : 44 min 53 s
Bit rate : 5 000 kb/s
Width : 1 280 pixels
Height : 720 pixels
aspect ratio : 16:9
rate mode : Constant
Frame rate : 29.970FPS
Color space : YUV
Chroma sampling : 4:2:0
Bit depth : 8 bits
Scan type : Progressive
Bits/(Pixel*Frame) : 0.181
Stream size : 1.53 GiB
Forced : No
Color range : Limited
Color primaries : BT.709
Transfer characteristics : BT.709
Matrix coefficients : BT.709

 Wrestling WWE Main Event

Audio
ID : 2
Format : AC-3
Format/Info : Audio Coding 3
Commercial name : Dolby Digital
Codec ID : A_AC3
Duration : 44 min 53 s
Bit rate mode : Constant
Bit rate : 192 kb/s
Channel(s) : 2 channels
Channel layout : L R
Sampling rate : 48.0 kHz
Frame rate : 31.250 FPS
Compression mode : Lossy
Delay relative to video : -5 ms
Stream size : 61.7 MiB
Title : Stereo
Service kind : Complete Main
Default : Yes
Forced : No

 

 

[/su_expand]

 

 

Watch online

 

Server 1

 

 

 

 

Watch Wrestling WWE Main Event

 

 

 

 

Server-2

 

 

 

 

watch now

 

 

 

 

Uploaded By Site DX-TV.com

 

Watch  WWE Main Event

Download Free Links with normal and high Speed [ more 14 hosts ]  

 

[su_expand more_text=”Show Hosts Info” less_text=”Close all Info” height=”30″ text_color=”#000000″ link_color=”#e25f8b” link_style=”button” more_icon=”icon: arrow-down” less_icon=”icon: arrow-up”]

 

 

hexupload.net – clicknupload.co – www.multiup.org

– uptobox.com – anonfiles.com – userscloud.com – 

 

 

[/su_expand]

 

http://shrt10.com/2iQ0E9j
http://shrt10.com/ulM5lkMYC
http://shrt10.com/0btwZ
http://shrt10.com/1cBM7F
http://shrt10.com/qF5zTK
http://shrt10.com/PGGBJx
http://shrt10.com/5FwQn
http://shrt10.com/p66j0

 

 

 

Download Links with premium High Speed   

  Wrestling WWE Main Event

 

 

 

dropapk.to

 

 

 

nitroflare.com

 

 

 

rapidgator.net

 

 

 

uploaded.net

 

 

 

uploadgig.com

 

 

https://dx-tv.com/wwe-main-event-5-30-2019-720p/

Leave a Reply

Your email address will not be published. Required fields are marked *

This site uses Akismet to reduce spam. Learn how your comment data is processed.